<?xml version="1.0" standalone="no"?>
<!DOCTYPE svg PUBLIC "-//W3C//DTD SVG 1.1//EN" "http://www.w3.org/Graphics/SVG/1.1/DTD/svg11.dtd" >
<svg xmlns="http://www.w3.org/2000/svg">
<metadata>Generated by IcoMoon</metadata>
<defs>
<font id="icomoon" horiz-adv-x="1024">
<font-face units-per-em="1024" ascent="960" descent="-64" />
<missing-glyph horiz-adv-x="1024" />
<glyph unicode="&#x20;" horiz-adv-x="512" d="" />
<glyph unicode="&#xe900;" glyph-name="youtube" d="M781.899 730.449h-539.795c-76.249 0-138.087-61.838-138.087-138.087v-288.728c0-76.249 61.838-138.087 138.087-138.087h539.795c76.249 0 138.087 61.838 138.087 138.087v288.728c0 76.249-61.838 138.087-138.087 138.087zM546.52 385.235l-122.394-62.765v251.067l244.792-125.536z" />
<glyph unicode="&#xe901;" glyph-name="alarm" d="M852.114 224.914h-702.171l-95.086-98.743v-29.257l29.257-32.914h288.914c0-70.692 57.308-128 128-128s128 57.308 128 128v0h288.914l32.914 32.914v29.257zM822.857 480.914c-1.134 130.386-79.63 242.163-191.772 291.76l-2.057 0.812v58.514c0 70.692-57.308 128-128 128s-128-57.308-128-128v0-58.514c-112.92-50.522-190.174-161.884-190.174-291.29 0-0.451 0.001-0.901 0.003-1.351v0.070-226.743h640zM438.857 832c-0.078 1.13-0.122 2.45-0.122 3.779 0 32.317 26.198 58.514 58.514 58.514 1.33 0 2.649-0.044 3.957-0.132l-0.177 0.009c1.093 0.069 2.371 0.108 3.657 0.108 34.336 0 62.171-27.835 62.171-62.171 0-0.038 0-0.076 0-0.114v0.006z" />
<glyph unicode="&#xe902;" glyph-name="basket" d="M763.2 566.72l-205.12 307.84c-9.461 10.305-22.539 17.159-37.208 18.542l-0.232 0.018c-0.722 0.044-1.566 0.069-2.415 0.069-14.52 0-27.328-7.326-34.931-18.483l-0.094-0.146-204.8-307.84h-224c-0.789 0.051-1.711 0.080-2.64 0.080-24.212 0-43.84-19.628-43.84-43.84 0-0.929 0.029-1.85 0.086-2.765l-0.006 0.125v-14.080l116.48-433.28c11.322-39.569 46.396-68.347 88.45-70.074l0.19-0.006h606.080c0.278-0.003 0.606-0.005 0.935-0.005 42.63 0 78.331 29.665 87.586 69.478l0.119 0.607 116.16 433.28v14.080c0.051 0.795 0.081 1.724 0.081 2.66 0 24.212-19.628 43.84-43.84 43.84-1.042 0-2.075-0.036-3.099-0.108l0.138 0.008zM379.2 566.72l140.16 205.44 139.84-205.44z" />
<glyph unicode="&#xe903;" glyph-name="bin" d="M182.857-64h640l62.171 702.171h-768zM629.029 832v128h-256v-128h-318.171v-193.829l62.171 65.829h768l65.829-65.829v193.829zM566.857 832h-128v62.171h128z" />
<glyph unicode="&#xe904;" glyph-name="pause" horiz-adv-x="704" d="M0 960h256v-1024h-256zM448 960h256v-1024h-256z" />
<glyph unicode="&#xe905;" glyph-name="book" d="M885.029 832v-833.829h-672.914c-45.803 9.176-79.828 49.072-79.828 96.914s34.025 87.738 79.197 96.809l0.631 0.106h610.743v768h-640c-70.692 0-128-57.308-128-128v0-768c0-70.692 57.308-128 128-128v0h768v896zM245.029 126.171h577.829v-62.171h-577.829z" />
<glyph unicode="&#xe906;" glyph-name="bubble" d="M512 923.429c281.6 0 512-186.514 512-416.914s-230.4-413.257-512-413.257h-80.457c-109.714-109.714-241.371-128-365.714-131.657v25.6c65.829 32.914 128 95.086 128 164.571 0 10.971-3.657 18.286-3.657 29.257-111.908 67.847-186.442 187.566-190.16 324.957l-0.011 0.529c0 230.4 230.4 416.914 512 416.914z" />
<glyph unicode="&#xe907;" glyph-name="calendar" d="M354.743 576h128v-128h-128zM548.571 576h128v-128h-128zM738.743 576h128v-128h-128zM164.571 192h128v-128h-128zM354.743 192h128v-128h-128zM548.571 192h128v-128h-128zM354.743 382.171h128v-128h-128zM548.571 382.171h128v-128h-128zM738.743 382.171h128v-128h-128zM164.571 382.171h128v-128h-128zM866.743 960v-65.829h-128v65.829h-446.171v-65.829h-128v65.829h-128v-1024h958.171v1024zM932.571-1.829h-833.829v705.829h833.829z" />
<glyph unicode="&#xe908;" glyph-name="camera" d="M512 543.086c-84.831 0-153.6-68.769-153.6-153.6s68.769-153.6 153.6-153.6c84.831 0 153.6 68.769 153.6 153.6v0c0 84.831-68.769 153.6-153.6 153.6v0zM921.6 696.686h-124.343c-17.663 2.893-32.268 13.879-40.085 28.952l-0.144 0.305-29.257 95.086c-7.961 15.378-22.566 26.364-39.911 29.214l-0.318 0.043h-351.086c-17.663-2.893-32.268-13.879-40.085-28.952l-0.144-0.305-29.257-95.086c-7.961-15.378-22.566-26.364-39.911-29.214l-0.318-0.043h-124.343c-55.752-1.951-100.449-46.648-102.395-102.218l-0.005-0.182v-460.8c1.951-55.752 46.648-100.449 102.218-102.395l0.182-0.005h819.2c55.752 1.951 100.449 46.648 102.395 102.218l0.005 0.182v460.8c-1.951 55.752-46.648 100.449-102.218 102.395l-0.182 0.005zM512 133.486c-141.385 0-256 114.615-256 256s114.615 256 256 256c141.385 0 256-114.615 256-256v0c0-141.385-114.615-256-256-256v0zM885.029 521.143c-19.453 1.751-34.82 17.119-36.56 36.416l-0.011 0.155c0 20.198 16.374 36.571 36.571 36.571v0c1.167 0.147 2.517 0.23 3.888 0.23 18.178 0 32.914-14.736 32.914-32.914 0-1.37-0.084-2.721-0.246-4.047l0.016 0.159c0-20.198-16.374-36.571-36.571-36.571v0z" />
<glyph unicode="&#xe909;" glyph-name="cart" d="M171.886 49.371c0-62.613 50.758-113.371 113.371-113.371s113.371 50.758 113.371 113.371c0 62.613-50.758 113.371-113.371 113.371v0c-62.613 0-113.371-50.758-113.371-113.371v0zM738.743 49.371c0-62.613 50.758-113.371 113.371-113.371v0c62.613 0 113.371 50.758 113.371 113.371s-50.758 113.371-113.371 113.371v0c-62.613 0-113.371-50.758-113.371-113.371v0zM373.029 320l629.029 179.2c12.358 4.439 21.183 15.727 21.939 29.171l0.004 0.086v310.857h-800.914v98.743c-1.851 12.478-12.489 21.944-25.338 21.944-0.092 0-0.184 0-0.276-0.001h-175.529c-12.119 0-21.943-9.824-21.943-21.943v0-91.429h109.714l113.371-515.657 10.971-54.857v-84.114c0-12.119 9.824-21.943 21.943-21.943v0h746.057c12.119 0 21.943 9.824 21.943 21.943v0 84.114h-640c-65.829 0-65.829 25.6-10.971 43.886z" />
<glyph unicode="&#xe90a;" glyph-name="chat" d="M296.229 330.971v318.171h-193.829c-55.752-1.951-100.449-46.648-102.395-102.218l-0.005-0.182v-307.2c1.951-55.752 46.648-100.449 102.218-102.395l0.182-0.005h51.2v-153.6l153.6 153.6h256c55.752 1.951 100.449 46.648 102.395 102.218l0.005 0.182v91.429h-369.371zM921.6 905.143h-460.8c-55.752-1.951-100.449-46.648-102.395-102.218l-0.005-0.182v-409.6h358.4l153.6-153.6v153.6h51.2c55.752 1.951 100.449 46.648 102.395 102.218l0.005 0.182v307.2c-1.951 55.752-46.648 100.449-102.218 102.395l-0.182 0.005z" />
<glyph unicode="&#xe90b;" glyph-name="clock" d="M512 960c-282.77 0-512-229.23-512-512s229.23-512 512-512c282.77 0 512 229.23 512 512v0c0 282.77-229.23 512-512 512v0zM512 64c-212.077 0-384 171.923-384 384s171.923 384 384 384c212.077 0 384-171.923 384-384v0c0-212.077-171.923-384-384-384v0zM735.086 510.171h-157.257v226.743c0.001 0.068 0.001 0.149 0.001 0.23 0 16.158-13.099 29.257-29.257 29.257-1.29 0-2.56-0.083-3.805-0.245l0.147 0.016h-65.829c-1.192 0.197-2.566 0.309-3.966 0.309-14.138 0-25.6-11.462-25.6-25.6 0-1.4 0.112-2.774 0.329-4.113l-0.020 0.147v-321.829c-0.146-1.098-0.23-2.369-0.23-3.658 0-16.158 13.099-29.257 29.257-29.257 0.081 0 0.161 0 0.242 0.001h255.988c18.178 0 32.914 14.736 32.914 32.914v65.829c0.001 0.068 0.001 0.149 0.001 0.23 0 16.158-13.099 29.257-29.257 29.257-1.29 0-2.56-0.083-3.805-0.245l0.147 0.016z" />
<glyph unicode="&#xe90c;" glyph-name="cloud" d="M1024 338.286c0.002 0.331 0.004 0.724 0.004 1.116 0 80.655-55.551 148.334-130.48 166.866l-1.181 0.247c-4.016 128.895-108.497 232.098-237.527 234.055l-0.188 0.002c-0.813 0.010-1.772 0.016-2.733 0.016-74.803 0-141.28-35.648-183.37-90.882l-0.411-0.563c-25.004 31.313-63.176 51.2-105.994 51.2-0.022 0-0.044 0-0.067 0h0.003c-1.089 0.032-2.371 0.051-3.657 0.051-72.712 0-131.657-58.945-131.657-131.657 0-0.018 0-0.036 0-0.054v0.003-21.943h-32.914c-0.010 0-0.022 0-0.035 0-105.763 0-191.741-84.708-193.791-189.98l-0.003-0.192c0-107.049 86.78-193.829 193.829-193.829v0h654.629c96.95 0 175.543 78.593 175.543 175.543v0z" />
<glyph unicode="&#xe90d;" glyph-name="cog" d="M932.571 349.257c-15.76 27.726-25.050 60.909-25.050 96.263 0 72.489 39.055 135.855 97.272 170.206l0.921 0.503-98.743 175.543c-27.891-18.259-62.034-29.159-98.717-29.257h-0.026c-0.010 0-0.022 0-0.035 0-107.049 0-193.829 86.78-193.829 193.829 0 1.286 0.013 2.569 0.037 3.849l-0.003-0.192h-201.143c-1.28-36.644-11.993-70.535-29.768-99.643l0.511 0.9c-34.154-58.273-96.473-96.786-167.786-96.786-36.608 0-70.847 10.149-100.054 27.787l0.869-0.487-98.743-175.543c30.466-16.521 55.225-40.108 72.669-68.652l0.474-0.834c14.99-27.467 23.805-60.164 23.805-94.92 0-72.579-38.44-136.179-96.072-171.552l-0.875-0.5 102.4-175.543c24.671 16.166 54.897 25.785 87.37 25.785 2.714 0 5.412-0.067 8.093-0.2l-0.377 0.015c107.049 0 193.829-86.78 193.829-193.829v0h201.143c1.28 36.644 11.993 70.535 29.768 99.643l-0.511-0.9c33.294 58.066 94.918 96.551 165.531 96.551 36.11 0 69.87-10.064 98.626-27.541l-0.843 0.476 102.4 175.543c-30.466 16.521-55.225 40.108-72.669 68.652l-0.474 0.834zM512 239.543c-115.128 0-208.457 93.329-208.457 208.457s93.329 208.457 208.457 208.457c115.128 0 208.457-93.329 208.457-208.457v0c-2.016-114.307-94.149-206.441-208.266-208.454l-0.191-0.003z" />
<glyph unicode="&#xe90e;" glyph-name="minus" d="M152 520v-144h720v144z" />
<glyph unicode="&#xe90f;" glyph-name="credit" d="M928.914 832h-833.829c-52.514 0-95.086-42.571-95.086-95.086v0-577.829c0-52.514 42.571-95.086 95.086-95.086h833.829c52.514 0 95.086 42.571 95.086 95.086v0 577.829c0 52.514-42.571 95.086-95.086 95.086v0zM95.086 766.171h833.829c16.399-1.363 29.641-13.362 32.873-29.021l0.041-0.237v-98.743h-896v98.743c1.685 15.433 13.824 27.572 29.11 29.244l0.147 0.013zM928.914 126.171h-833.829c-15.895 3.273-27.894 16.516-29.248 32.782l-0.009 0.133v288.914h896v-288.914c-2.945-16.86-16.054-29.969-32.673-32.879l-0.241-0.035zM128 320h65.829v-128h-65.829zM256 320h65.829v-128h-65.829zM384 320h65.829v-128h-65.829z" />
<glyph unicode="&#xe910;" glyph-name="cross-1" d="M1016.96 889.28l-56.96 57.6-443.2-440.96-441.92 440.96-57.92-57.6 441.92-441.28-441.92-441.28 57.92-57.92 441.92 441.28 443.2-440.96 57.92 57.92-441.92 440.96z" />
<glyph unicode="&#xe911;" glyph-name="cross-3" d="M674.88 448l321.6 320c12.501 12.603 20.225 29.959 20.225 49.12s-7.725 36.517-20.23 49.125l-63.995 63.995c-12.799 13.957-31.118 22.674-51.472 22.674-19.105 0-36.416-7.68-49.015-20.121l0.007 0.007-320-321.92-320 319.68c-12.603 12.501-29.959 20.225-49.12 20.225s-36.517-7.725-49.125-20.23l-63.995-63.995c-13.278-12.722-21.53-30.598-21.53-50.402 0-18.689 7.349-35.661 19.315-48.185l-0.025 0.027 320-320-319.68-320c-12.501-12.603-20.225-29.959-20.225-49.12s7.725-36.517 20.23-49.125l63.995-63.995c12.603-12.501 29.959-20.225 49.12-20.225s36.517 7.725 49.125 20.23l319.995 319.995 320-320c12.603-12.501 29.959-20.225 49.12-20.225s36.517 7.725 49.125 20.23l63.995 63.995c12.501 12.603 20.225 29.959 20.225 49.12s-7.725 36.517-20.23 49.125l0.005-0.005z" />
<glyph unicode="&#xe912;" glyph-name="cross-2" d="M633.6 448l365.12 365.12c13.897 15.233 22.409 35.587 22.409 57.929 0 47.541-38.539 86.080-86.080 86.080-22.342 0-42.696-8.512-57.997-22.47l0.068 0.061-365.12-365.12-365.12 365.12c-15.233 13.897-35.587 22.409-57.929 22.409-47.541 0-86.080-38.539-86.080-86.080 0-22.342 8.512-42.696 22.47-57.997l-0.061 0.068 365.12-365.12-365.12-365.12c-17.324-15.803-28.151-38.473-28.151-63.671 0-47.541 38.539-86.080 86.080-86.080 25.198 0 47.868 10.827 63.61 28.083l0.061 0.068 365.12 365.12 365.12-365.12c15.803-17.324 38.473-28.151 63.671-28.151 47.541 0 86.080 38.539 86.080 86.080 0 25.198-10.827 47.868-28.083 63.61l-0.068 0.061z" />
<glyph unicode="&#xe913;" glyph-name="cycle" d="M230.4 184.686c-62.387 69.050-100.56 161.015-100.56 261.895 0 192.205 138.573 352.045 321.263 385.062l2.383 0.357v128c-119.706-12.777-224.981-66.297-303.471-146.212l-0.072-0.074c-92.928-93.25-150.383-221.902-150.383-363.974 0-138.39 54.516-264.048 143.245-356.668l-0.176 0.185-109.714-109.714 343.771-18.286v365.714l-146.286-146.286zM647.314 930.743v-362.057l146.286 142.629c62.988-69.2 101.558-161.595 101.558-262.999 0-107.018-42.96-204.003-112.576-274.649l0.047 0.047c-55.794-55.286-128.667-93.421-210.006-105.793l-2.109-0.264v-131.657c256.308 32.548 452.484 249.251 452.484 511.773 0 137.656-53.939 262.713-141.834 355.19l0.207-0.22 109.714 109.714-343.771 18.286z" />
<glyph unicode="&#xe914;" glyph-name="docs-1" d="M768 533.12h-426.24c-9.367 0-16.96-7.593-16.96-16.96s7.593-16.96 16.96-16.96v0h426.24c9.367 0 16.96 7.593 16.96 16.96s-7.593 16.96-16.96 16.96v0zM341.76 635.2h170.24c9.367 0 16.96 7.593 16.96 16.96s-7.593 16.96-16.96 16.96v0h-170.24c-9.367 0-16.96-7.593-16.96-16.96s7.593-16.96 16.96-16.96v0zM768 397.12h-426.24c-9.367 0-16.96-7.593-16.96-16.96s7.593-16.96 16.96-16.96h426.24c9.367 0 16.96 7.593 16.96 16.96s-7.593 16.96-16.96 16.96v0zM768 260.8h-426.24c-9.367 0-16.96-7.593-16.96-16.96s7.593-16.96 16.96-16.96h426.24c9.367 0 16.96 7.593 16.96 16.96s-7.593 16.96-16.96 16.96v0zM768 124.8h-426.24c-9.367 0-16.96-7.593-16.96-16.96s7.593-16.96 16.96-16.96h426.24c9.367 0 16.96 7.593 16.96 16.96s-7.593 16.96-16.96 16.96v0zM835.2 710.080v248.32h-731.52v-935.68h85.12v-85.12h731.52v687.68zM682.24 815.040l179.84-179.84h-179.84zM138.24 56.64v867.52h661.76v-179.84l-128 128h-483.2v-815.36zM224-28.16v867.2h424v-238.080h238.080v-629.12z" />
<glyph unicode="&#xe915;" glyph-name="docs-2" d="M928 890.56h-399.68v9.6c0 33.049-26.791 59.84-59.84 59.84v0h-69.44c-33.049 0-59.84-26.791-59.84-59.84v0-9.92h-96c-9.013 0-16.32-7.307-16.32-16.32v0-131.2h-130.88c-9.013 0-16.32-7.307-16.32-16.32v0-608s0 0 0-1.6v-7.36l165.12-165.12h493.44c9.013 0 16.32 7.307 16.32 16.32v0 62.4h173.44c9.013 0 16.32 7.307 16.32 16.32v0 834.88c0 9.013-7.307 16.32-16.32 16.32v0zM371.84 900.16c-0.005 0.191-0.008 0.415-0.008 0.64 0 15.022 12.178 27.2 27.2 27.2 0.003 0 0.005 0 0.008 0h69.44c15.022 0 27.2-12.178 27.2-27.2v0-9.92h-123.84v9.28zM371.84 710.080h80.32v-80.32h-80.32v80.32zM448 596.8c-5.015-6.636-12.892-10.88-21.76-10.88v0h-26.24c-8.868 0-16.745 4.244-21.71 10.812l-0.050 0.068zM258.56 857.92h80.64v-115.2h-80.64zM243.52 39.36v-47.68l-109.44 109.44h109.44zM721.92 39.36v-71.36h-445.76v149.44c0 9.013-7.307 16.32-16.32 16.32v0h-148.8v576h228.16v-80.32h-131.52c-7.526-1.553-13.104-8.125-13.104-16s5.578-14.447 12.998-15.982l0.106-0.018h133.76c7.348-25.323 30.334-43.52 57.572-43.52 0.010 0 0.020 0 0.030 0h26.238c0.008 0 0.018 0 0.028 0 27.237 0 50.224 18.197 57.466 43.097l0.105 0.423h150.72c0.967-0.203 2.078-0.32 3.216-0.32 9.013 0 16.32 7.307 16.32 16.32s-7.307 16.32-16.32 16.32c-1.138 0-2.249-0.117-3.322-0.338l0.106 0.018h-148.8v80.64h237.12v-672zM913.92 55.68h-160v670.72c0 9.013-7.307 16.32-16.32 16.32h-252.8v79.36c-1.553 7.526-8.125 13.104-16 13.104s-14.447-5.578-15.982-12.998l-0.018-0.106v-79.36h-80.96v115.2h541.44v-802.24zM633.6 490.24h-425.92c-7.526-1.553-13.104-8.125-13.104-16s5.578-14.447 12.998-15.982l0.106-0.018h425.92c7.526 1.553 13.104 8.125 13.104 16s-5.578 14.447-12.998 15.982l-0.106 0.018zM633.6 352h-425.92c-0.967 0.203-2.078 0.32-3.216 0.32-9.013 0-16.32-7.307-16.32-16.32s7.307-16.32 16.32-16.32c1.138 0 2.249 0.117 3.322 0.338l-0.106-0.018h425.92c7.526 1.553 13.104 8.125 13.104 16s-5.578 14.447-12.998 15.982l-0.106 0.018zM633.6 212.16h-425.92c-7.526-1.553-13.104-8.125-13.104-16s5.578-14.447 12.998-15.982l0.106-0.018h425.92c7.526 1.553 13.104 8.125 13.104 16s-5.578 14.447-12.998 15.982l-0.106 0.018z" />
<glyph unicode="&#xe916;" glyph-name="microphone" d="M512.033 255.992c105.604 0 192.008 86.403 192.008 192.008v319.992c0 105.604-86.403 192.008-192.008 192.008s-192.008-86.403-192.008-192.008v-319.992c0-105.604 86.403-192.008 192.008-192.008zM768.063 544.003v-96.004c0-140.826-115.204-256.031-256.031-256.031s-256.031 115.204-256.031 256.031v96.004h-127.985v-96.004c0-188.827 137.585-348.794 319.992-377.594v-134.405h127.985v134.405c182.407 31.981 319.992 188.827 319.992 377.594v96.004h-127.923z" />
<glyph unicode="&#xe917;" glyph-name="rg" d="M229.183 499.953c0-26.47 0-52.94 0-79.412 0-75.912 0.131-73.23 76.906-76.757 60.803-2.79 109.384 15.071 150.322 58.958 62.44 66.942 49.673 227.039-84.52 242.661-35.377 4.116-71.3 3.555-106.892 6.201-26.109 1.94-37.146-7.838-36.139-34.445 1.477-39.016 0.385-78.13 0.323-117.208zM36.248 706.396c8.321 0.539 17.058 1.577 25.802 1.592 111.229 0.258 222.459 0.622 333.689 0.174 13.812-0.061 27.732-4.161 41.39-7.262 77.284-17.556 139.939-54.161 156.974-136.438 19.12-92.412-10.213-169.655-89.227-225.388-21.657-15.263-46.275-26.456-76.745-43.57 65.339-88.515 128.187-178.515 197.047-263.805 18.944-23.461 56.216-32.222 84.26-49.041 8.998-5.402 15.392-15.020 22.975-22.713-8.799-7.002-16.806-18.688-26.528-20.294-84.228-13.938-156.558 12.313-207.562 78.039-53.512 68.958-99.64 143.541-148.037 216.287-38.799 58.327-38.161 58.737-121.104 50.219 0-24.754 0-50.539 0-76.331 0.007-42.917-0.285-85.853 0.092-128.776 0.593-68.861 22.026-90.775 90.519-93.546 6.244-0.256 12.466-1.094 21.364-1.901v-37.848h-304.449c-11.097 28.863-2.8 39.518 27.756 41.029 40.944 2.022 66.947 28.018 67.17 68.491 1.023 180.525 0.892 361.066-0.284 541.599-0.254 38.523-23.495 57.898-73.085 69.853-26.51 6.39-26.51 6.39-22.018 39.63zM977.147 868.611c-15.628-6.762-31.443-13.607-40.748-17.632-18.105 15.168-31.775 28.518-47.288 39.289-54.513 37.856-128.175 6.163-131.951-58.497-3.302-56.625-2.068-113.591-0.685-170.361 0.736-29.746 35.064-59.271 70.513-65.085 36.248-5.951 73.604 10.878 86.019 42.541 7.552 19.247 9.12 40.767 14.169 65.1-18.099 0.902-30.565 1.456-43.019 2.168-11.244 0.636-22.47 1.44-35.704 2.303v53.116h143.528c-2.464-40.607 0.736-81.542-8.435-119.572-18.4-76.235-85.879-114.16-172.097-103.639-75.044 9.157-119.817 61.243-120.354 141.199-0.339 50.485-1.651 101.1 1.312 151.433 3.975 67.435 53.227 119.239 116.002 126.94 85.009 10.43 141.211-18.39 168.736-89.304z" />
<glyph unicode="&#xe918;" glyph-name="download-1" d="M855.040 960h-339.2c-20.854 0-37.76-16.906-37.76-37.76v-579.2l-83.2 83.2c-6.59 5.748-15.267 9.253-24.762 9.253-20.854 0-37.76-16.906-37.76-37.76 0-9.575 3.564-18.318 9.438-24.974l-0.035 0.041 147.52-147.52c6.784-6.827 16.178-11.052 26.56-11.052s19.776 4.225 26.558 11.050l147.522 147.522c5.838 6.615 9.402 15.358 9.402 24.933 0 20.854-16.906 37.76-37.76 37.76-9.495 0-18.172-3.505-24.807-9.291l0.045 0.038-83.2-83.2v541.76h301.44c53.019 0 96-42.981 96-96v0-680.32c0-53.019-42.981-96-96-96v0h-678.4c-53.019 0-96 42.981-96 96v0 679.040c0 53.019 42.981 96 96 96v0h88c21.119 0 38.24 17.121 38.24 38.24s-17.121 38.24-38.24 38.24v0h-88c-95.185-0.182-172.298-77.295-172.48-172.463v-679.057c0.182-95.185 77.295-172.298 172.463-172.48h678.417c0 0 0 0 0 0 95.322 0 172.618 77.183 172.8 172.463v679.057c-0.363 95.224-77.55 172.299-172.783 172.48h-0.017z" />
<glyph unicode="&#xe919;" glyph-name="download-2" d="M1023.986 192.315v-208.775c0-4.176-0.658-8.028-1.616-11.601-4.534-20.512-24.179-35.917-47.403-35.917h-926.238c-24.835 0-45.438 17.542-48.058 39.817-0.655 2.692-0.655 5.058-0.655 8.028v208.775c0 24.641 21.913 44.549 48.36 44.549 13.198 0 25.49-5.058 34.153-13.086 8.715-8.028 14.207-19.305 14.207-31.463v-167.195h830.834v167.195c0 24.641 21.913 44.549 48.36 44.549 13.198 0 25.49-5.058 34.153-13.086 8.413-8.307 13.903-19.583 13.903-31.788v0zM826.411 435.91l-242.374-240.971c-0.308-0.664-0.976-0.971-1.336-1.329-8.889-8.838-20.399-14.406-31.909-16.041-0.976 0-1.952-0.306-2.98-0.306-1.952-0.306-3.956-0.306-5.909-0.306l-5.601 0.306c-0.976 0-1.952 0.306-2.98 0.306-11.818 1.635-23.019 7.203-31.909 16.041-0.308 0.306-0.976 0.971-1.336 1.329l-242.374 240.971c-11.201 11.136-16.75 25.85-16.75 40.562s5.601 29.425 16.75 40.562c22.351 22.222 58.885 22.222 81.544 0l145.667-144.824 0.155 530.566c0 31.366 26 57.216 57.549 57.216 15.774 0 30.264-6.538 40.798-16.653 10.533-10.472 16.75-24.521 16.75-40.562v-530.618l145.667 144.824c22.351 22.222 58.885 22.222 81.544 0 21.375-22.581 21.375-58.85-0.976-81.072h0.013z" />
<glyph unicode="&#xe91a;" glyph-name="download-3" d="M512 413.76l256 272.96h-192v273.28h-128v-272.96h-192zM744.64 525.44l-72.64-77.44 260.16-103.36-420.16-166.4-421.12 167.36 261.12 102.4-72.64 77.44-279.36-111.68v-272.96l512-204.8 512 204.8v272.96z" />
<glyph unicode="&#xe91b;" glyph-name="edit" d="M896-64h-768c-70.692 0-128 57.308-128 128v0 768c0 70.692 57.308 128 128 128v0h574.171l-128-128h-380.343c-36.356 0-65.829-29.472-65.829-65.829v0-640c1.993-34.748 30.657-62.172 65.727-62.172 0.036 0 0.071 0 0.107 0h636.337c0.030 0 0.066 0 0.102 0 35.070 0 63.734 27.424 65.719 61.996l0.008 0.176v384l128 128v-574.171c0-70.692-57.308-128-128-128v0zM896 832l-65.829 62.171v65.829s193.829 3.657 193.829-193.829h-65.829zM321.829 254.171v193.829h62.171l128-128v-65.829zM896 704l-321.829-321.829-124.343 128 318.171 321.829z" />
<glyph unicode="&#xe91c;" glyph-name="email" d="M516.16 360.32l-462.080 405.44h923.84zM332.16 448l-323.84-284.16v568.64zM374.080 411.2l142.080-123.2 142.080 124.8 320-280.96h-924.48zM699.84 448l324.16 284.48v-568.64z" />
<glyph unicode="&#xe91d;" glyph-name="a" horiz-adv-x="1097" d="M338.65 348.262h283.024c-48.154 116.353-95.816 231.516-144.206 348.442-46.8-117.466-92.669-232.603-138.819-348.442zM46.157 17.81c10.744 2.077 21.675 3.504 32.195 6.356 22.163 6.012 37.070 19.105 45.768 40.689 98.954 245.539 198.392 490.895 297.84 736.244 3.28 8.095 3.131 15.364-0.246 23.317-12.037 28.344-23.698 56.838-35.482 85.283-1.221 2.944-2.309 5.94-3.784 9.748 3.984 0.189 7.16 0.473 10.337 0.473 76.973 0.023 153.949-0.14 230.92 0.241 8.594 0.043 11.88-3.012 14.863-10.253 114.87-278.966 230.187-557.764 344.678-836.876 10.942-26.683 29.177-42.364 56.656-49.401 9.918-2.538 20.158-3.913 30.259-5.822v-48.508h-457.185c-0.61 2.45-1.032 3.372-1.042 4.301-0.104 9.048-0.173 18.103-0.187 27.151-0.024 16.194 0.13 15.184 16.843 17.291 19.997 2.509 40.526 4.747 59.389 11.11 26.086 8.799 35.979 26.075 34.384 52.729-0.573 9.574-2.033 19.493-5.374 28.453-16.968 45.495-34.834 90.675-51.984 136.104-2.509 6.646-6.032 8.488-13.048 8.475-112.976-0.204-225.954-0.217-338.933 0.023-7.32 0.015-10.405-2.393-12.8-8.85-13.179-35.517-26.728-70.911-40.373-106.269-6.755-17.496-15.582-34.399-20.653-52.319-8.995-31.788 2.795-50.929 35.125-60.555 8.544-2.545 17.413-4.286 26.261-5.588 12.016-1.777 24.155-2.779 36.187-4.103v-47.952h-290.613c0 16.172 0 32.344 0 48.508z" />
<glyph unicode="&#xe91e;" glyph-name="flow-tree" d="M943.543 188.343v124.343c0.099 2.229 0.156 4.843 0.156 7.47 0 98.969-80.231 179.2-179.2 179.2-2.627 0-5.241-0.057-7.841-0.168l0.371 0.013h-109.714c-76.8 0-84.114 36.571-84.114 58.514v149.943c46.903 21.16 79.219 67.003 80.454 120.528l0.003 0.157c0 72.712-58.945 131.657-131.657 131.657s-131.657-58.945-131.657-131.657v0c1.238-53.682 33.554-99.526 79.605-120.341l0.852-0.345v-149.943c0-14.629-3.657-58.514-84.114-58.514h-109.714c-2.229 0.099-4.843 0.156-7.47 0.156-98.969 0-179.2-80.231-179.2-179.2 0-2.627 0.057-5.241 0.168-7.841l-0.013 0.371v-124.343c-46.903-21.16-79.219-67.003-80.454-120.528l-0.003-0.157c0-72.712 58.945-131.657 131.657-131.657v0c71.122 2.038 128 60.18 128 131.606 0 0.018 0 0.036 0 0.054v-0.003c0.002 0.297 0.004 0.648 0.004 1 0 52.819-31.104 98.374-75.995 119.347l-0.809 0.339v124.343c-0.056 1.118-0.087 2.427-0.087 3.744 0 44.435 36.022 80.457 80.457 80.457 1.317 0 2.627-0.032 3.928-0.094l-0.184 0.007h109.714c2.308-0.093 5.016-0.146 7.737-0.146 27.519 0 53.77 5.428 77.741 15.271l-1.364-0.496v-223.086c-46.903-21.16-79.219-67.003-80.454-120.528l-0.003-0.157c0-72.712 58.945-131.657 131.657-131.657s131.657 58.945 131.657 131.657v0c-1.238 53.682-33.554 99.526-79.605 120.341l-0.852 0.345v223.086c22.607-9.347 48.858-14.775 76.377-14.775 2.721 0 5.43 0.053 8.125 0.158l-0.388-0.012h109.714c1.118 0.056 2.427 0.087 3.744 0.087 44.435 0 80.457-36.022 80.457-80.457 0-1.317-0.032-2.627-0.094-3.928l0.007 0.184v-124.343c-45.7-21.312-76.804-66.867-76.804-119.686 0-0.352 0.001-0.703 0.004-1.054v0.054c-1.163-6.574-1.829-14.143-1.829-21.867 0-72.712 58.945-131.657 131.657-131.657s131.657 58.945 131.657 131.657c0 7.724-0.665 15.293-1.941 22.652l0.113-0.785c-1.238 53.682-33.554 99.526-79.605 120.341l-0.852 0.345zM204.8 67.657c0.058-1.092 0.091-2.371 0.091-3.657 0-40.396-32.747-73.143-73.143-73.143-0.032 0-0.064 0-0.097 0h0.005c-42.415 0-76.8 34.385-76.8 76.8v0c0 0.027 0 0.059 0 0.091 0 40.396 32.747 73.143 73.143 73.143 1.286 0 2.565-0.033 3.835-0.099l-0.178 0.007c40.396 0 73.143-32.747 73.143-73.143v0zM435.2 828.343c0 42.415 34.385 76.8 76.8 76.8s76.8-34.385 76.8-76.8v0c0-42.415-34.385-76.8-76.8-76.8s-76.8 34.385-76.8 76.8v0zM588.8 67.657c0.055-1.092 0.087-2.371 0.087-3.657 0-42.415-34.385-76.8-76.8-76.8s-76.8 34.385-76.8 76.8c0 42.385 34.335 76.75 76.708 76.8h0.005c0.026 0 0.056 0 0.087 0 41.129 0 74.707-32.331 76.706-72.964l0.007-0.179zM892.343-9.143c-0.027 0-0.059 0-0.091 0-40.396 0-73.143 32.747-73.143 73.143 0 1.286 0.033 2.565 0.099 3.835l-0.007-0.178c0 40.396 32.747 73.143 73.143 73.143v0c1.092 0.058 2.371 0.091 3.657 0.091 40.396 0 73.143-32.747 73.143-73.143 0-0.032 0-0.064 0-0.097v0.005c0-42.415-34.385-76.8-76.8-76.8v0z" />
<glyph unicode="&#xe91f;" glyph-name="folder" d="M833.829 34.743l190.171 512h-830.171l-193.829-512zM128 612.571l-128-577.829v833.829h288.914l128-128h416.914v-128z" />
<glyph unicode="&#xe920;" glyph-name="external" d="M194.629-63.293h538.949c107.778 0 194.621 86.843 194.621 194.621v329.358c0 25.439-19.474 44.912-44.912 44.912s-44.912-19.474-44.912-44.912v-329.358c0-58.362-46.432-104.796-104.796-104.796h-538.949c-58.362 0-104.796 46.432-104.796 104.796v538.949c0 58.362 46.432 104.796 104.796 104.796h329.358c25.439 0 44.912 19.474 44.912 44.912s-19.474 44.912-44.912 44.912h-329.358c-107.778 0-194.621-86.843-194.621-194.621v-538.949c0-107.778 86.843-194.621 194.621-194.621zM1023.982 638.884v273.981c0 2.983 0 5.964-1.52 9.006 0 1.52 0 2.983-1.52 2.983 0 1.52-1.52 2.983-1.52 4.502s-1.52 2.983-2.983 4.502c0 1.52-1.52 2.983-1.52 2.983-2.983 4.502-7.486 9.006-11.989 11.989l-2.983 1.52c-2.924 4.386-5.906 5.906-8.889 5.906l-4.502 1.52c-2.983 0-5.964 1.52-9.006 1.52l-273.921-0.059c-25.439 0-44.912-19.474-44.912-44.912s19.474-44.912 44.912-44.912h166.206l-411.757-413.164c-17.953-17.953-17.953-46.432 0-62.866 17.953-17.953 46.432-17.953 62.866 0l413.224 411.697v-166.206c0-25.439 19.474-44.912 44.912-44.912 23.978 0 43.449 20.936 44.912 44.912l-0.010 0.008z" />
<glyph unicode="&#xe921;" glyph-name="headphones" d="M341.335-63.999h-227.556q-46.933 0-80.356 33.423t-33.423 80.356v398.222q0 106.667 40.533 199.822t109.511 162.133 162.133 109.511 199.822 40.533 199.822-40.533 162.133-109.511 109.511-162.133 40.533-199.822v-398.222q0-46.933-33.423-80.356t-80.356-33.423h-227.556v455.11h227.556v56.889q0 166.4-115.911 282.31t-282.31 115.911-282.31-115.911-115.911-282.31v-56.889h227.556v-455.11zM227.558 277.334h-113.777v-227.556h113.777v227.556zM796.445 277.334v-227.556h113.777v227.556h-113.777zM227.558 277.334v0zM796.445 277.334v0z" />
<glyph unicode="&#xe922;" glyph-name="heart" d="M512 9.143c-0.314-0.011-0.682-0.017-1.052-0.017-9.741 0-18.494 4.232-24.52 10.957l-0.027 0.031-354.743 343.771-18.286 14.629-29.257 36.571-40.229 54.857c-10.876 19.696-20.796 42.694-28.484 66.69l-0.774 2.796c-9.264 23.375-14.635 50.457-14.635 78.794 0 0.585 0.002 1.169 0.007 1.753l-0.001-0.089c-0.219 4.043-0.343 8.775-0.343 13.537 0 71.351 27.991 136.165 73.59 184.059l-0.104-0.11c47.849 43.525 111.722 70.176 181.821 70.176 6.799 0 13.54-0.251 20.213-0.743l-0.891 0.053c24.852-0.086 48.739-4.093 71.114-11.434l-1.629 0.463 69.486-32.914 54.857-40.229 43.886-40.229 43.886 40.229 54.857 40.229 69.486 32.914c20.747 6.879 44.633 10.886 69.444 10.971h0.042c5.782 0.44 12.523 0.691 19.322 0.691 70.098 0 133.971-26.651 182.040-70.373l-0.219 0.197c45.496-47.784 73.486-112.598 73.486-183.949 0-4.761-0.125-9.494-0.371-14.194l0.027 0.657c0-84.114-43.886-171.886-131.657-256l-354.743-343.771c-6.054-6.757-14.807-10.988-24.548-10.988-0.37 0-0.739 0.006-1.106 0.018l0.053-0.001z" />
<glyph unicode="&#xe923;" glyph-name="home" d="M877.714 382.171v-303.543c0.13-1.158 0.204-2.501 0.204-3.862 0-20.198-16.374-36.571-36.571-36.571-1.36 0-2.703 0.074-4.025 0.219l0.163-0.015h-245.029v241.371h-160.914v-241.371h-245.029c-0.481-0.021-1.045-0.032-1.612-0.032-10.716 0-20.453 4.19-27.663 11.021l0.018-0.017c-6.814 7.192-11.004 16.929-11.004 27.645 0 0.567 0.012 1.131 0.035 1.692l-0.003-0.080v303.543l365.714 303.543 365.714-299.886zM1020.343 426.057l-40.229-47.543-14.629-7.314c-5.962 0-11.257 2.853-14.595 7.268l-0.033 0.046-438.857 365.714-438.857-365.714-14.629-7.314-14.629 7.314-40.229 47.543c-2.367 3.45-3.78 7.716-3.78 12.312 0 0.816 0.045 1.622 0.131 2.414l-0.009-0.098c0 5.962 2.853 11.257 7.268 14.595l0.046 0.033 457.143 380.343c12.093 9.185 27.401 14.714 44 14.714 1.246 0 2.485-0.031 3.716-0.093l-0.173 0.007c1.058 0.055 2.297 0.086 3.543 0.086 16.599 0 31.906-5.529 44.181-14.846l-0.181 0.132 157.257-131.657v124.343c0 7.314 0 10.971 3.657 14.629l14.629 7.314h120.686c5.962 0 11.257-2.853 14.595-7.268l0.033-0.046c7.314-3.657 7.314-7.314 7.314-14.629v-259.657l138.971-113.371c4.461-3.371 7.314-8.667 7.314-14.629v0c0.078-0.695 0.123-1.5 0.123-2.316 0-4.596-1.413-8.862-3.828-12.387l0.049 0.075z" />
<glyph unicode="&#xe924;" glyph-name="image" d="M859.602 847.252h-695.204c-90.777 0-164.398-73.621-164.398-164.398v-469.709c0-90.777 73.621-164.398 164.398-164.398h695.204c90.777 0 164.398 73.621 164.398 164.398v469.709c0 43.622-17.339 85.409-48.164 116.234s-72.658 48.164-116.234 48.164zM164.398 142.687c-38.898 0-70.457 31.561-70.457 70.459v77.521l278.291 113.895 279.488-261.875h-487.323zM928.872 213.145c0-38.898-31.558-70.457-70.457-70.457h-70.457l-192.557 182.012 133.843 90.41 200.824-137.378-1.197-64.587zM928.872 391.623l-173.804 118.625c-15.917 10.826-36.879 10.826-52.842 0l-177.292-119.764-110.409 103.299c-13.257 12.431-32.43 16.054-49.31 9.403l-270.082-110.363v290.033c0 38.898 31.558 70.457 70.457 70.457h694.018c38.898 0 70.457-31.558 70.457-70.457l-1.192-291.234z" />
<glyph unicode="&#xe925;" glyph-name="info" d="M504.686 960c-279.584-4.15-504.634-231.767-504.634-511.947 0-282.77 229.23-512 512-512s512 229.23 512 512c0 2.553-0.019 5.102-0.056 7.646l0.004-0.385c-4.092 279.629-231.732 504.739-511.949 504.739-2.59 0-5.175-0.019-7.756-0.058l0.39 0.005zM563.2 788.114c51.2 0 65.829-29.257 65.829-62.171 0-0.095 0.001-0.207 0.001-0.319 0-46.455-37.659-84.114-84.114-84.114-2.575 0-5.123 0.116-7.639 0.342l0.324-0.024c-51.2 0-73.143 25.6-73.143 65.829 3.536 45.553 41.369 81.177 87.523 81.177 3.956 0 7.85-0.262 11.667-0.769l-0.447 0.049zM427.886 126.171c-36.571 0-62.171 21.943-36.571 117.029l40.229 168.229c7.314 29.257 10.971 40.229 0 40.229-31.927-8.248-59.955-20.8-85.216-37.244l1.102 0.673-18.286 29.257c87.771 69.486 186.514 113.371 230.4 113.371s40.229-43.886 21.943-106.057l-43.886-179.2c-10.971-29.257-7.314-40.229 3.657-40.229 30.185 5.917 56.369 20.175 76.823 40.251l-0.023-0.023 21.943-29.257c-84.114-84.114-175.543-117.029-212.114-117.029z" />
<glyph unicode="&#xe926;" glyph-name="key" d="M705.829 960c-1.094 0.014-2.385 0.021-3.678 0.021-175.721 0-318.171-142.45-318.171-318.171 0-1.293 0.008-2.585 0.023-3.874l-0.002 0.196c0-18.286 3.657-36.571 3.657-58.514l-387.657-387.657v-193.829c1.993-34.748 30.657-62.172 65.727-62.172 0.036 0 0.071 0 0.107 0h62.165v62.171h128v128h128v128h128l84.114 84.114c32.703-11.491 70.41-18.178 109.664-18.286h0.050c162.384 17.892 287.57 154.327 287.57 320s-125.186 302.107-286.124 319.87l-1.446 0.13zM800.914 638.171c-5.687-1.163-12.223-1.829-18.915-1.829-54.534 0-98.743 44.209-98.743 98.743s44.209 98.743 98.743 98.743c6.692 0 13.228-0.666 19.546-1.934l-0.631 0.106c45.803-9.176 79.828-49.072 79.828-96.914s-34.025-87.738-79.197-96.809l-0.631-0.106z" />
<glyph unicode="&#xe927;" glyph-name="link" d="M377.6 153.6l-50.88-50.56c-20.524-20.363-48.793-32.947-80-32.947s-59.476 12.584-80.007 32.954l0.007-0.007c-20.276 20.027-32.834 47.827-32.834 78.56s12.558 58.533 32.823 78.549l0.011 0.011 186.88 185.6c38.72 38.4 111.68 96 164.8 42.24 11.402-11.603 27.261-18.794 44.8-18.794 34.68 0 62.794 28.114 62.794 62.794 0 17.141-6.868 32.678-18.002 44.009l0.009-0.009c-90.24 89.6-224 72.96-340.16-42.24l-186.88-185.6c-42.981-42.583-69.593-101.624-69.593-166.88s26.612-124.298 69.576-166.862l0.018-0.018c43.034-42.516 102.21-68.778 167.52-68.778s124.486 26.262 167.544 68.802l-0.024-0.023 49.28 49.6c11.631 11.389 18.842 27.252 18.842 44.8 0 34.618-28.064 62.682-62.682 62.682-17.070 0-32.547-6.824-43.851-17.892l0.011 0.011zM944.32 874.24c-96 96-232.64 101.44-322.56 12.48l-64-64c-12.27-11.375-19.924-27.579-19.924-45.572 0-34.286 27.794-62.080 62.080-62.080 18.47 0 35.057 8.066 46.428 20.868l0.055 0.064 64 64c46.4 46.080 107.52 26.88 147.2-12.48 20.276-20.027 32.834-47.827 32.834-78.56s-12.558-58.533-32.823-78.549l-0.011-0.011-199.36-197.76c-91.2-90.56-134.080-48-152.32-29.76-11.519 11.479-27.411 18.576-44.96 18.576-35.178 0-63.696-28.518-63.696-63.696 0-17.629 7.162-33.585 18.735-45.118l0.002-0.002c35.156-37.438 84.642-61.063 139.655-62.077l0.185-0.003c75.060 4.971 141.206 39.472 187.589 91.871l0.251 0.289 199.36 197.76c42.981 42.583 69.593 101.624 69.593 166.88s-26.612 124.298-69.576 166.862l-0.018 0.018z" />
<glyph unicode="&#xe928;" glyph-name="lock" d="M833.829 510.171h-65.829v193.829c0 141.385-114.615 256-256 256s-256-114.615-256-256v0-193.829h-62.171c-1.093 0.069-2.371 0.108-3.657 0.108-34.336 0-62.171-27.835-62.171-62.171 0-0.038 0-0.076 0-0.114v0.006-449.829c1.993-34.748 30.657-62.172 65.727-62.172 0.036 0 0.071 0 0.107 0h639.994c33.556 1.874 60.298 28.616 62.164 62l0.008 0.172v449.829c0 34.336-27.835 62.171-62.171 62.171v0zM512 126.171c-0.032 0-0.070 0-0.108 0-34.336 0-62.171 27.835-62.171 62.171 0 1.287 0.039 2.564 0.116 3.831l-0.008-0.174c-0.078 1.13-0.122 2.45-0.122 3.779 0 32.317 26.198 58.514 58.514 58.514 1.33 0 2.649-0.044 3.957-0.132l-0.177 0.009c1.093 0.069 2.371 0.108 3.657 0.108 34.336 0 62.171-27.835 62.171-62.171 0-0.038 0-0.076 0-0.114v0.006c0-36.356-29.472-65.829-65.829-65.829v0zM640 510.171h-256v193.829c0 70.692 57.308 128 128 128s128-57.308 128-128v0z" />
<glyph unicode="&#xe929;" glyph-name="loop" d="M128 638.171h640v-190.171l256 256-256 256v-193.829h-768v-384h128zM896 254.171h-640v193.829l-256-256 256-256v190.171h768v384h-128z" />
<glyph unicode="&#xe92a;" glyph-name="megaphone" d="M917.943 616.229c-87.771 212.114-234.057 369.371-307.2 340.114s73.143-292.571-537.6-541.257c-51.2-21.943-65.829-109.714-43.886-160.914s95.086-102.4 146.286-80.457l43.886 14.629c36.571-51.2 76.8-21.943 91.429-51.2s54.857-124.343 65.829-153.6 40.229-54.857 62.171-47.543l117.029 47.543c15.829 2.577 27.765 16.149 27.765 32.509 0 6.989-2.178 13.469-5.893 18.798l0.071-0.107c-7.314 18.286-43.886 25.6-54.857 47.543s-43.886 98.743-51.2 124.343 14.629 58.514 54.857 62.171c277.943 29.257 329.143-142.629 424.229-102.4s58.514 241.371-32.914 449.829zM888.686 276.114c-18.286-7.314-128 80.457-197.486 245.029s-62.171 310.857-43.886 318.171 124.343-98.743 193.829-263.314 62.171-292.571 47.543-299.886z" />
<glyph unicode="&#xe92b;" glyph-name="broadcast" d="M460.8-64v423.68q-23.040 14.080-37.12 36.48t-14.080 51.84q0 42.24 30.080 72.32t72.32 30.080 72.32-30.080 30.080-72.32q0-29.44-14.080-52.48t-37.12-35.84v-423.68h-102.4zM158.72 76.801q-72.96 70.4-115.84 165.759t-42.88 205.44q0 106.24 40.32 199.68t109.44 162.56 162.56 109.44 199.68 40.32 199.68-40.32 162.56-109.44 109.44-162.56 40.32-199.68q0-110.080-42.88-206.079t-115.84-165.12l-71.68 71.68q58.88 56.32 93.44 133.76t34.56 165.759q0 171.519-119.040 290.559t-290.559 119.040-290.559-119.040-119.040-290.559q0-88.32 34.56-165.12t94.72-133.12l-72.96-72.96zM303.36 221.44q-44.8 42.24-71.68 100.48t-26.88 126.080q0 128 89.6 217.599t217.599 89.6 217.599-89.6 89.6-217.599q0-67.84-26.88-126.72t-71.68-99.84l-72.96 72.96q32 29.44 50.56 69.12t18.56 84.48q0 84.48-60.16 144.64t-144.64 60.16-144.64-60.16-60.16-144.64q0-46.080 18.56-85.12t50.56-68.48l-72.96-72.96z" />
<glyph unicode="&#xe92c;" glyph-name="mobile" d="M702.171 960h-394.971c-58.574 0-106.057-47.483-106.057-106.057v0-811.886c0-58.574 47.483-106.057 106.057-106.057v0h394.971c58.574 0 106.057 47.483 106.057 106.057v0 811.886c0 58.574-47.483 106.057-106.057 106.057v0zM504.686-23.771c-40.229 0-73.143 25.6-73.143 54.857s32.914 51.2 73.143 51.2 73.143-21.943 73.143-51.2-32.914-54.857-73.143-54.857zM724.114 133.486h-438.857v691.2h438.857z" />
<glyph unicode="&#xe92d;" glyph-name="mouse" d="M199.68 448c0 64 0 128 0 192 0.863 173.779 141.937 314.32 315.836 314.32 124.532 0 232.231-72.073 283.659-176.782l0.825-1.858c20.11-39.546 31.923-86.224 32-135.655v-0.025c0-128 2.24-256 0-384 0.023-1.382 0.035-3.012 0.035-4.645 0-124.16-74.276-230.971-180.818-278.424l-1.937-0.771c-38.752-19.725-84.51-31.281-132.967-31.281-43.973 0-85.723 9.517-123.303 26.602l1.87-0.761c-114.195 48.171-193.119 158.731-194.239 287.858l-0.001 0.142c-1.28 65.28-0.96 129.28-0.96 193.28zM263.68 448c0-64 0-128 0-192-0.004-0.532-0.006-1.161-0.006-1.79 0-12.006 0.816-23.822 2.396-35.395l-0.15 1.345c22.027-119.202 125.169-208.296 249.119-208.296 136.635 0 247.984 108.261 252.947 243.683l0.013 0.453q0 192 0 384c0.102 2.681 0.16 5.83 0.16 8.993 0 139.618-113.182 252.8-252.8 252.8s-252.8-113.182-252.8-252.8c0-3.162 0.058-6.311 0.173-9.446l-0.013 0.453q0-96 0-190.080zM577.6 565.76c-5.088-30.691-31.436-53.806-63.183-53.806-0.85 0-1.696 0.017-2.538 0.049l0.121-0.004c-32.691 2.17-58.554 28.588-59.836 61.318l-0.004 0.122c0 22.080 0 44.16 0 66.56 5.042 30.742 31.415 53.912 63.2 53.912s58.158-23.17 63.15-53.542l0.050-0.371c0-10.88 0-21.44 0-32z" />
<glyph unicode="&#xe92e;" glyph-name="book_2" d="M605.089 545.745v79.127q38.4 16.291 78.545 24.436t84.363 8.146q30.254 0 59.345-4.655t57.018-11.637v-74.473q-27.927 10.473-56.436 15.709t-59.927 5.236q-44.218 0-84.946-11.054t-77.964-30.837zM605.089 289.745v79.127q38.4 16.291 78.545 24.436t84.363 8.146q30.254 0 59.345-4.655t57.018-11.637v-74.473q-27.927 10.473-56.436 15.709t-59.927 5.236q-44.218 0-84.946-10.473t-77.964-31.418zM605.089 417.746v79.127q38.4 16.291 78.545 24.436t84.363 8.146q30.254 0 59.345-4.655t57.018-11.637v-74.473q-27.927 10.473-56.436 15.709t-59.927 5.236q-44.218 0-84.946-11.054t-77.964-30.837zM255.999 261.818q54.69 0 106.473-12.218t102.982-36.654v458.472q-47.709 27.927-101.236 41.891t-108.218 13.964q-41.891 0-83.2-8.146t-79.709-24.436v-460.799q40.727 13.964 80.872 20.945t82.036 6.982zM558.545 212.945q51.2 24.436 102.982 36.654t106.473 12.218q41.891 0 82.036-6.982t80.872-20.945v460.799q-38.4 16.291-79.709 24.436t-83.2 8.146q-54.69 0-108.218-13.964t-101.236-41.891v-458.472zM511.999 75.637q-55.854 44.218-121.018 68.654t-134.981 24.436q-48.873 0-96-12.8t-90.182-36.073q-24.436-12.8-47.127 1.164t-22.691 40.727v560.872q0 12.8 6.4 24.436t19.2 17.455q53.528 27.927 111.709 41.891t118.691 13.964q67.491 0 132.073-17.455t123.927-52.364q59.345 34.909 123.927 52.364t132.073 17.455q60.509 0 118.691-13.964t111.709-41.891q12.8-5.818 19.2-17.455t6.4-24.436v-560.872q0-26.763-22.691-40.727t-47.127-1.164q-43.055 23.272-90.182 36.073t-96 12.8q-69.818 0-134.981-24.436t-121.018-68.654z" />
<glyph unicode="&#xe92f;" glyph-name="pdf-1" d="M707.84 512c0.29-2.193 0.455-4.73 0.455-7.305 0-32.519-26.361-58.88-58.88-58.88-1.963 0-3.904 0.096-5.817 0.284l0.243-0.019c-2.588-0.233-5.599-0.365-8.64-0.365s-6.052 0.133-9.026 0.392l0.386-0.027v124.8c5.342 1.055 11.484 1.659 17.768 1.659 1.179 0 2.353-0.021 3.521-0.063l-0.169 0.005c1.843 0.221 3.977 0.348 6.141 0.348 30.044 0 54.4-24.356 54.4-54.4 0-2.265-0.138-4.498-0.407-6.691l0.026 0.263zM501.44 571.84c-2.687 0.288-5.804 0.452-8.96 0.452s-6.273-0.164-9.344-0.485l0.384 0.032v-57.28c2.26-0.341 4.867-0.535 7.52-0.535s5.26 0.194 7.809 0.57l-0.289-0.035c23.36 0 37.44 11.52 37.44 32s-13.12 29.12-34.88 29.12zM922.56 644.16v-268.16h-552.32v268.16zM567.36 544c0.011 0.384 0.017 0.836 0.017 1.289 0 14.637-6.423 27.773-16.603 36.745l-0.054 0.046c-12.371 8.747-27.766 13.982-44.385 13.982-2.061 0-4.103-0.080-6.123-0.238l0.267 0.017c-1.221 0.020-2.661 0.031-4.104 0.031-15.389 0-30.476-1.292-45.159-3.772l1.584 0.221v-168.64h32v64c2.305-0.278 4.974-0.436 7.68-0.436s5.375 0.158 7.998 0.467l-0.318-0.030c1.266-0.075 2.747-0.118 4.238-0.118 19.122 0 36.59 7.077 49.93 18.754l-0.088-0.075c8.199 9.174 13.21 21.348 13.21 34.693 0 1.079-0.033 2.151-0.097 3.213l0.007-0.146zM741.12 512c0.131 1.679 0.206 3.636 0.206 5.61 0 23.359-10.472 44.271-26.977 58.3l-0.109 0.091c-16.927 12.592-38.243 20.159-61.326 20.159-2.856 0-5.685-0.116-8.482-0.343l0.368 0.024c-0.199 0-0.435 0.001-0.671 0.001-17.263 0-34.226-1.28-50.801-3.75l1.872 0.229v-168.32c12.059-1.43 26.027-2.246 40.185-2.246 0.723 0 1.445 0.002 2.166 0.006l-0.111-0.001c2.412-0.182 5.225-0.286 8.062-0.286 26.24 0 50.403 8.897 69.635 23.838l-0.257-0.192c16.657 16.086 27 38.616 27 63.563 0 1.617-0.043 3.224-0.129 4.82l0.010-0.222zM800 522.88v47.36h67.2v25.6h-99.2v-171.2h32v72.96h64v25.28zM762.24 155.2h-154.24v-142.72l-2.24-1.92h-466.56v883.52h623.040v-216.96h66.56v250.88c0 17.673-14.327 32-32 32v0h-690.88c-17.673 0-32-14.327-32-32v0-950.4c0-17.673 14.327-32 32-32v0h512c0.156-0.003 0.34-0.004 0.525-0.004 8.468 0 16.168 3.289 21.892 8.66l-0.017-0.016 178.24 160c6.877 5.905 11.206 14.608 11.206 24.323 0 0.224-0.002 0.447-0.007 0.67l0.001-0.033v207.040h-67.52z" />
<glyph unicode="&#xe930;" glyph-name="pdf-2" d="M693.44-41.28c-12.548 0-22.72 10.172-22.72 22.72v0 272.64c0 12.548 10.172 22.72 22.72 22.72v0h272.64c12.548 0 22.72-10.172 22.72-22.72s-10.172-22.72-22.72-22.72h-249.92v-249.92c0-12.548-10.172-22.72-22.72-22.72v0zM693.44-64h-469.44c-25.096 0-45.44 20.344-45.44 45.44v0 272.64c0 25.096 20.344 45.44 45.44 45.44s45.44-20.344 45.44-45.44v0-227.2h405.12l246.080 246.080v596.16h-696.64c-25.096 0-45.44 20.344-45.44 45.44s20.344 45.44 45.44 45.44v0h742.4c25.096 0 45.44-20.344 45.44-45.44v0-660.48c-0.075-12.518-5.199-23.824-13.437-31.997l-272.643-272.643c-8.176-8.241-19.482-13.366-31.986-13.44h-0.014zM144 527.36h-64v-114.56h-59.84v341.12h100.48c1.042 0.010 2.274 0.016 3.507 0.016 19.308 0 38.288-1.402 56.844-4.109l-2.111 0.253c16.237-1.657 31.007-6.678 44.023-14.355l-0.503 0.275c11.913-7.834 21.246-18.709 27.013-31.535l0.187-0.465c5.809-14.787 9.176-31.911 9.176-49.822 0-2.736-0.079-5.454-0.234-8.151l0.017 0.373c0.057-1.465 0.090-3.184 0.090-4.911 0-18.916-3.917-36.917-10.985-53.237l0.335 0.868c-6.633-14.449-15.936-26.62-27.373-36.358l-0.147-0.122c-10.384-8.767-22.804-15.487-36.425-19.352l-0.695-0.168c-11.757-3.512-25.283-5.605-39.275-5.759l-0.085-0.001zM130.56 704h-51.84v-124.8h56.64c2.083-0.224 4.5-0.352 6.947-0.352 16.319 0 31.311 5.682 43.106 15.175l-0.133-0.104c9.384 11.698 15.060 26.722 15.060 43.071 0 2.412-0.124 4.795-0.365 7.144l0.024-0.295c0.037 1.002 0.059 2.178 0.059 3.359 0 8.82-1.189 17.362-3.417 25.474l0.158-0.674c-2.12 7.504-6.132 13.899-11.493 18.855l-0.027 0.025c-5.896 5.101-13.142 8.802-21.128 10.504l-0.312 0.056c-8.405 1.689-18.068 2.655-27.956 2.655-1.872 0-3.737-0.035-5.592-0.103l0.268 0.008zM434.56 412.8h-128v341.12h128c0.78 0.012 1.701 0.018 2.624 0.018 23.652 0 46.288-4.349 67.152-12.291l-1.296 0.433c20.825-8.008 38.622-19.635 53.458-34.258l-0.018 0.018c14.79-14.763 26.533-32.573 34.209-52.409l0.351-1.031c7.717-20.157 12.186-43.473 12.186-67.833 0-1.128-0.010-2.253-0.029-3.377l0.002 0.169c0.020-1.045 0.032-2.278 0.032-3.513 0-24.365-4.471-47.685-12.638-69.185l0.446 1.339c-8.027-20.867-19.77-38.677-34.558-53.438l-0.002-0.002c-14.809-14.62-32.609-26.25-52.395-33.885l-1.045-0.355c-19.3-7.317-41.615-11.554-64.918-11.554-1.252 0-2.502 0.012-3.748 0.037l0.187-0.003zM434.56 700.8h-69.76v-232h69.76c1.674-0.101 3.632-0.158 5.603-0.158 28.904 0 54.921 12.362 73.052 32.087l0.065 0.071c16.889 21.103 27.103 48.186 27.103 77.656 0 2.626-0.081 5.233-0.241 7.819l0.018-0.354c0.032 1.052 0.050 2.29 0.050 3.532 0 30.089-10.648 57.691-28.382 79.243l0.172-0.216c-18.132 19.215-43.772 31.178-72.206 31.178-1.841 0-3.671-0.050-5.487-0.149l0.253 0.011zM869.12 699.52h-152v-81.28h117.44v-54.72h-117.44v-150.72h-57.6v341.12h209.6z" />
<glyph unicode="&#xe931;" glyph-name="pdf-3" d="M803.52 960h-647.040v-140.8h-104.96v-371.2h104.96v-512h824v857.92zM608 649.28v-32h-75.84v-76.8h-36.48v182.080h123.84v-32h-87.36v-41.28zM465.28 630.4c0.021-0.825 0.032-1.797 0.032-2.771 0-12.723-2.001-24.978-5.706-36.469l0.234 0.84c-4.064-12.51-10.654-23.23-19.217-32.017l0.017 0.017c-7.055-6.509-15.64-11.471-25.147-14.285l-0.453-0.115c-8.747-2.461-18.792-3.876-29.167-3.876-0.996 0-1.989 0.013-2.979 0.039l0.146-0.003h-69.44v180.8h66.56c1.651 0.076 3.587 0.12 5.533 0.12 10.758 0 21.206-1.327 31.189-3.827l-0.882 0.187c10.625-3.313 19.68-9.061 26.855-16.613l0.025-0.027c7.585-8.060 13.497-17.789 17.119-28.569l0.161-0.551c3.686-11.738 5.809-25.236 5.809-39.229 0-1.284-0.018-2.563-0.053-3.838l0.004 0.188zM182.4 610.24v-68.16h-37.12v180.48h58.56c2.158 0.077 4.694 0.121 7.24 0.121 12.702 0 25.149-1.092 37.252-3.186l-1.292 0.185c10.61-3.034 19.499-9.227 25.834-17.483l0.086-0.117c6.627-9.19 10.599-20.677 10.599-33.092 0-0.741-0.014-1.479-0.042-2.213l0.003 0.106c0.011-0.432 0.017-0.94 0.017-1.449 0-9.606-2.251-18.685-6.255-26.741l0.157 0.35c-3.673-7.275-8.873-13.294-15.213-17.82l-0.147-0.1c-5.39-3.744-11.703-6.617-18.501-8.243l-0.379-0.077c-9.907-1.664-21.32-2.615-32.956-2.615-1.689 0-3.374 0.020-5.053 0.060l0.249-0.005zM920.64-3.52h-704v451.52h501.76v371.2h-501.76v80.32h563.2l140.8-131.52v-771.52zM413.12 681.6c-4.529 4.275-10.329 7.248-16.776 8.295l-0.184 0.025c-7.32 1.285-15.749 2.019-24.35 2.019-1.903 0-3.797-0.036-5.682-0.107l0.272 0.008h-16.32v-119.68h26.88c1.098-0.042 2.387-0.066 3.682-0.066 6.504 0 12.866 0.606 19.033 1.766l-0.635-0.099c5.704 1.442 10.655 4.108 14.76 7.714l-0.040-0.034c4.487 4.801 7.824 10.733 9.538 17.32l0.062 0.28c2.259 8.718 3.556 18.726 3.556 29.038 0 1.042-0.013 2.080-0.040 3.116l0.003-0.153c0.075 1.465 0.117 3.181 0.117 4.907 0 9.64-1.328 18.969-3.811 27.816l0.173-0.723c-2.239 6.88-5.863 12.775-10.57 17.61l0.010-0.010zM240 682.56c-3.992 4.489-9.605 7.461-15.912 7.994l-0.088 0.006c-3.929 0.336-8.502 0.527-13.12 0.527s-9.191-0.191-13.712-0.567l0.592 0.040h-16v-50.56h19.52c1.617-0.102 3.505-0.16 5.408-0.16 8.317 0 16.375 1.109 24.033 3.188l-0.641-0.148c4.804 1.725 8.756 4.85 11.468 8.878l0.052 0.082c2.609 3.784 4.167 8.467 4.167 13.514 0 0.199-0.002 0.397-0.007 0.595l0.001-0.029c0.028 0.418 0.044 0.907 0.044 1.399 0 5.76-2.206 11.005-5.819 14.937l0.014-0.016z" />
<glyph unicode="&#xe932;" glyph-name="pencil" d="M786.286 883.2c-113.371 80.457-193.829 80.457-223.086 76.8l-21.943-14.629-405.943-563.2c-16.433-21.171-27.097-47.563-29.229-76.329l-0.028-0.471-14.629-332.8c-0.765-2.488-1.206-5.349-1.206-8.312 0-16.158 13.099-29.257 29.257-29.257 5.883 0 11.36 1.736 15.947 4.724l-0.113-0.069 310.857 117.029c26.308 12.125 48.339 29.471 65.56 50.855l0.269 0.345 405.943 563.2c5.383 4.044 8.828 10.416 8.828 17.592 0 2.882-0.556 5.634-1.566 8.156l0.052-0.148c-3.657 29.257-29.257 106.057-138.971 186.514zM446.171 126.171l-120.686-47.543c-1.143-0.775-2.552-1.236-4.069-1.236-3.172 0-5.873 2.019-6.886 4.843l-0.016 0.051c-19.354 22.005-40.955 41.284-64.66 57.746l-1.168 0.768c-22.015 17.74-47.405 32.544-74.856 43.22l-1.944 0.665c-3.657 0-7.314 7.314-7.314 10.971l7.314 128 32.914 47.543c63.778-0.267 122.368-22.26 168.805-58.954l-0.577 0.44c51.255-32.518 89.094-82.246 105.641-140.902l0.416-1.726-32.914-43.886z" />
<glyph unicode="&#xe933;" glyph-name="person-1" d="M516.16 358.080c165.476 0.161 299.558 134.342 299.558 299.84 0 165.597-134.243 299.84-299.84 299.84s-299.84-134.243-299.84-299.84c0-82.869 33.618-157.885 87.959-212.157l0.003-0.003c54.149-54.172 128.968-87.68 211.613-87.68 0.192 0 0.384 0 0.577 0.001h-0.030zM516.16-61.76c211.2 0 360 59.84 360 120 0 120-141.12 240-360 240-224 0-360-120-360-240 0-60.16 134.72-120 360-120z" />
<glyph unicode="&#xe934;" glyph-name="person-2" d="M515.657 458.971c113.371 0 204.8 113.371 204.8 252.343s-29.257 248.686-204.8 248.686-204.8-113.371-204.8-248.686 91.429-252.343 204.8-252.343zM903.314 85.943c-3.657 241.371-32.914 310.857-274.286 354.743-28.227-27.194-66.679-43.945-109.042-43.945-1.522 0-3.040 0.022-4.551 0.065l0.222-0.005c-0.439-0.004-0.958-0.007-1.477-0.007-43.261 0-82.622 16.692-111.997 43.987l0.102-0.094c-237.714-43.886-270.629-109.714-274.286-347.429v-40.229s54.857-117.029 387.657-117.029 387.657 117.029 387.657 117.029v32.914z" />
<glyph unicode="&#xe935;" glyph-name="phone" d="M437.12 378.88c88.96-102.72 192-202.56 240-161.6 67.52 58.24 110.080 110.080 240.32-11.2s18.56-187.84-46.72-244.16c-75.2-64-332.16 20.48-571.84 297.92s-288 544-211.84 608c64 56.32 147.2 157.12 248.32 10.88s43.84-180.8-23.68-238.72c-47.040-40.96 36.48-160 125.44-261.12z" />
<glyph unicode="&#xe936;" glyph-name="infographic" d="M227.558 163.555h113.777v398.222h-113.777v-398.222zM455.112 163.555h113.777v568.888h-113.777v-568.888zM682.668 163.555h113.777v227.555h-113.777v-227.555zM113.78-64q-46.933 0-80.356 33.423t-33.423 80.356v796.442q0 46.933 33.423 80.356t80.356 33.423h796.442q46.933 0 80.356-33.423t33.423-80.356v-796.442q0-46.933-33.423-80.356t-80.356-33.423h-796.442zM113.78 49.777h796.442v796.442h-796.442v-796.442zM113.78 846.22v0z" />
<glyph unicode="&#xe937;" glyph-name="pin" d="M516.16 956.48c-0.096 0-0.209 0-0.323 0-175.044 0-317.030-141.537-317.757-316.411v-0.070c0-303.36 317.76-699.2 317.76-699.2s318.080 394.56 318.080 699.2c-0.727 174.943-142.713 316.48-317.757 316.48-0.001 0-0.002 0-0.003 0v0zM516.16 463.040c-94.728 0-171.52 76.792-171.52 171.52s76.792 171.52 171.52 171.52c94.728 0 171.52-76.792 171.52-171.52v0c-0.182-94.59-76.904-171.2-171.52-171.2 0 0 0 0 0 0v0z" />
<glyph unicode="&#xe938;" glyph-name="play" d="M108.588-64c-8.171 0.103-16.134 2.327-23.167 6.413-14.893 8.378-23.891 24.304-23.373 41.369v929.749c0.103 16.599 8.997 31.906 23.373 40.232 14.375 8.273 32.112 8.326 46.539 0.103l806.69-465.391c14.427-8.326 23.322-23.684 23.322-40.335s-8.895-32.009-23.322-40.335l-806.69-465.391c-7.136-4.085-15.151-6.309-23.373-6.414v0z" />
<glyph unicode="&#xe939;" glyph-name="plus-1" d="M1024 375.36h-435.52v-435.52h-144.96v435.52h-435.84v145.28h435.84v435.52h144.96v-435.52h435.52z" />
<glyph unicode="&#xe93a;" glyph-name="print-1" d="M36.16 91.2h201.92v-119.040c-0.001-0.095-0.001-0.207-0.001-0.32 0-19.794 16.046-35.84 35.84-35.84 0.001 0 0.001 0 0.002 0h476.16c0.096-0.001 0.208-0.001 0.321-0.001 19.794 0 35.84 16.046 35.84 35.84 0 0.113-0.001 0.226-0.002 0.339v-0.017 119.040h201.92c0.004 0 0.008 0 0.013 0 19.794 0 35.84 16.046 35.84 35.84 0 0.338-0.005 0.674-0.014 1.009l0.001-0.049v640c0.001 0.096 0.001 0.208 0.001 0.321 0 19.794-16.046 35.84-35.84 35.84-0.113 0-0.226-0.001-0.339-0.002h-201.903v119.68c0.001 0.095 0.001 0.207 0.001 0.32 0 19.794-16.046 35.84-35.84 35.84-0.001 0-0.001 0-0.002 0h-476.16c0 0-0.001 0-0.001 0-19.794 0-35.84-16.046-35.84-35.84 0-0.113 0.001-0.225 0.002-0.337v0.017-119.040h-201.92c-0.099 0.001-0.216 0.002-0.333 0.002-19.794 0-35.84-16.046-35.84-35.84 0-0.338 0.005-0.675 0.014-1.011l-0.001 0.049v-640c0-0.002 0-0.004 0-0.006 0-20.099 16.113-36.435 36.126-36.794h0.034zM713.92 8.32h-403.84v297.92h403.84zM310.080 887.68h403.84v-82.88h-403.84zM72.32 732.8h879.36v-569.6h-165.76v143.040h64c19.971 0 36.16 16.189 36.16 36.16s-16.189 36.16-36.16 36.16h-675.52c-19.971 0-36.16-16.189-36.16-36.16s16.189-36.16 36.16-36.16h64v-143.040h-166.080zM704 546.56h92.8c19.971 0 36.16 16.189 36.16 36.16s-16.189 36.16-36.16 36.16v0h-92.8c-19.971 0-36.16-16.189-36.16-36.16s16.189-36.16 36.16-36.16v0z" />
<glyph unicode="&#xe93b;" glyph-name="print-2" d="M716.8 227.2h-409.6c-9.72 0-17.6-7.88-17.6-17.6s7.88-17.6 17.6-17.6h409.6c9.455 0 17.12 7.665 17.12 17.12s-7.665 17.12-17.12 17.12v0zM716.8 141.76h-409.6c-9.455 0-17.12-7.665-17.12-17.12s7.665-17.12 17.12-17.12h409.6c9.455 0 17.12 7.665 17.12 17.12s-7.665 17.12-17.12 17.12v0zM870.4 669.76v290.24h-716.8v-290.24h-153.6v-580.16h153.6v-153.6h716.8v153.6h153.6v580.16zM187.84 925.76h648.32v-256h-648.32zM153.6 635.84h836.16v-272.96h-955.52v272.96zM102.4 123.84h-68.16v204.8h119.36v-204.8h-16.96zM836.48-29.76h-648.64v358.4h648.32v-358.4zM887.68 123.84v0h-17.28v204.8h119.36v-204.8h-68.16z" />
<glyph unicode="&#xe93c;" glyph-name="pushpin" d="M460.8 506.514v277.943l-7.314 10.971c-3.371 4.461-8.667 7.314-14.629 7.314v0l-10.971-7.314-7.314-10.971v-277.943l7.314-14.629h25.6c3.657 3.941 6.249 8.92 7.286 14.447l0.028 0.181zM874.057 290.743c0.13-1.158 0.204-2.501 0.204-3.862 0-20.198-16.374-36.571-36.571-36.571-1.36 0-2.703 0.074-4.025 0.219l0.163-0.015h-263.314l-32.914-296.229c0.078-0.695 0.123-1.5 0.123-2.316 0-4.596-1.413-8.862-3.828-12.387l0.049 0.075h-14.629c-10.099 0-18.286 8.187-18.286 18.286v0l-47.543 296.229h-248.686c-0.481-0.021-1.045-0.032-1.612-0.032-10.716 0-20.453 4.19-27.663 11.021l0.018-0.017c-6.814 7.192-11.004 16.929-11.004 27.645 0 0.567 0.012 1.131 0.035 1.692l-0.003-0.080c-0.026 1.21-0.040 2.637-0.040 4.067 0 50.089 17.982 95.978 47.842 131.564l-0.259-0.317c24.503 35.669 64.072 59.459 109.322 62.153l0.393 0.019v310.857c-0.769-0.029-1.672-0.045-2.578-0.045-20.477 0-38.989 8.415-52.266 21.976l-0.012 0.013c-12.954 14.604-21.131 33.704-21.938 54.693l-0.005 0.164c0.231 22.419 8.495 42.863 22.045 58.636l-0.102-0.121c13.29 13.573 31.802 21.988 52.279 21.988 0.907 0 1.809-0.016 2.708-0.049l-0.13 0.004h394.971c0.769 0.029 1.672 0.045 2.578 0.045 20.477 0 38.989-8.415 52.266-21.976l0.012-0.013c13.448-15.651 21.712-36.096 21.942-58.465v-0.049c-0.812-21.153-8.989-40.253-22.022-54.948l0.079 0.091c-13.29-13.573-31.802-21.988-52.279-21.988-0.907 0-1.809 0.016-2.708 0.049l0.13-0.004v-314.514c45.642-2.712 85.211-26.502 109.401-61.689l0.314-0.483c29.602-35.27 47.583-81.159 47.583-131.248 0-1.43-0.015-2.856-0.044-4.279l0.003 0.213z" />
<glyph unicode="&#xe93d;" glyph-name="quote-set1-end" d="M0 832v-384h256c0-141.385-114.615-256-256-256v0-128c212.077 0 384 171.923 384 384v0 384zM640 832v-384h256c0-141.385-114.615-256-256-256v0-128c212.077 0 384 171.923 384 384v0 384z" />
<glyph unicode="&#xe93e;" glyph-name="quote-set1-start" d="M1024 64v384h-256c0 141.385 114.615 256 256 256v0 128c-212.077 0-384-171.923-384-384v0-384zM384 64v384h-256c0 141.385 114.615 256 256 256v0 128c-212.077 0-384-171.923-384-384v0-384z" />
<glyph unicode="&#xe93f;" glyph-name="webinar" d="M930.907 52.363v744.727h-837.817v-372.363h-93.090v372.363q0 38.4 27.346 65.746t65.746 27.346h837.817q38.4 0 65.746-27.346t27.346-65.746v-651.635q0-38.4-27.346-65.746t-65.746-27.346zM372.363 378.181q-76.8 0-131.49 54.69t-54.69 131.49 54.69 131.49 131.49 54.69 131.49-54.69 54.69-131.49-54.69-131.49-131.49-54.69zM372.363 471.271q38.4 0 65.746 27.346t27.346 65.746-27.346 65.746-65.746 27.346-65.746-27.346-27.346-65.746 27.346-65.746 65.746-27.346zM0 5.817v130.327q0 39.564 20.364 72.728t54.109 50.618q72.145 36.073 146.618 54.109t151.273 18.036 151.273-18.036 146.618-54.109q33.745-17.455 54.109-50.618t20.364-72.728v-130.327h-744.727zM93.091 98.908h558.545v37.236q0 12.8-6.4 23.272t-16.873 16.291q-62.836 31.418-126.837 47.127t-129.163 15.709-129.163-15.709-126.837-47.127q-10.473-5.818-16.873-16.291t-6.4-23.272v-37.236z" />
<glyph unicode="&#xe940;" glyph-name="transcript" d="M882.036 242.036l-72.145 72.145q51.2 47.709 80.291 112.873t29.091 138.472-29.091 137.309-80.291 111.709l72.145 74.473q65.163-61.672 103.563-145.454t38.4-178.036-38.4-178.036-103.563-145.454zM733.091 390.981l-74.473 74.473q20.945 19.781 33.745 44.8t12.8 55.273-12.8 55.273-33.745 44.8l74.473 74.473q37.236-33.745 58.181-78.545t20.945-96-20.945-96-58.181-78.545zM372.364 379.345q-76.8 0-131.491 54.691t-54.691 131.491 54.691 131.491 131.491 54.691 131.491-54.691 54.691-131.491-54.691-131.491-131.491-54.691zM0.001 6.982v130.328q0 38.4 19.781 72.145t54.691 51.2q59.345 30.254 133.819 51.2t164.073 20.945 164.073-20.945 133.819-51.2q34.909-17.455 54.691-51.2t19.781-72.145v-130.328h-744.727zM93.091 100.072h558.545v37.236q0 12.8-6.4 23.272t-16.873 16.291q-41.891 20.945-107.637 41.891t-148.364 20.945-148.364-20.945-107.637-41.891q-10.473-5.818-16.873-16.291t-6.4-23.272v-37.236zM372.364 472.436q38.4 0 65.746 27.346t27.346 65.746-27.346 65.746-65.746 27.346-65.746-27.346-27.346-65.746 27.346-65.746 65.746-27.346z" />
<glyph unicode="&#xe941;" glyph-name="search" d="M1019.156 31.137l-206.381 206.381c70.943 93.516 103.19 212.83 83.842 341.818-29.022 196.702-190.263 351.487-386.964 377.285-293.453 35.472-541.75-212.83-506.273-506.273 25.798-196.702 180.583-357.947 377.285-386.964 128.988-19.348 248.297 16.124 341.818 83.842l206.381-206.381c6.449-6.449 16.124-6.449 22.573 0l67.719 67.719c6.449 6.449 6.449 16.124 0 22.573zM451.609 185.922c-177.364 0-322.47 145.106-322.47 322.47s145.106 322.47 322.47 322.47c177.364 0 322.47-145.106 322.47-322.47s-145.106-322.47-322.47-322.47z" />
<glyph unicode="&#xe942;" glyph-name="share" d="M561.969 789.224v-478.633c0-27.536-22.198-49.872-49.965-49.872-27.583 0-49.965 22.338-49.965 49.872v478.813l-56.381-56.428c-19.341-19.341-50.714-19.294-70.337 0.328-19.528 19.528-19.388 51.228-0.328 70.337l141.939 141.89c9.6 9.647 22.198 14.469 34.84 14.469l0.374-0.14c12.69-0.047 25.288-4.823 34.794-14.329l141.89-141.89c19.341-19.341 19.341-50.714-0.281-70.337-19.528-19.528-51.276-19.388-70.337-0.328l-56.242 56.248zM112.417 35.944h799.171v349.858c0 27.489 22.198 49.731 49.965 49.731 27.583 0 49.965-22.431 49.965-49.731v-400.054c0-13.72-5.572-26.131-14.564-35.122-9.132-9.037-21.588-14.611-35.356-14.611h-899.199c-13.766 0-26.177 5.525-35.216 14.516-9.085 9.177-14.704 21.588-14.704 35.215v400.054c0 27.489 22.198 49.732 49.965 49.732 27.583 0 49.965-22.433 49.965-49.732l0.001-349.857z" />
<glyph unicode="&#xe943;" glyph-name="twitter-x" horiz-adv-x="1001" d="M596.009 526.629l372.819 433.371h-88.346l-323.718-376.29-258.553 376.29h-298.21l390.983-569.018-390.983-454.457h88.351l341.855 397.375 273.051-397.375h298.21l-405.458 590.103zM475 385.969l-354.815 507.521h135.702l624.636-893.48h-135.702l-269.821 385.959z" />
<glyph unicode="&#xe944;" glyph-name="speaker_notes" d="M819.2 652.8v102.4h-409.6v-102.4zM819.2 499.2v102.4h-409.6v-102.4zM665.6 345.6v102.4h-256v-102.4zM307.2 652.8v102.4h-102.4v-102.4zM307.2 499.2v102.4h-102.4v-102.4zM307.2 345.6v102.4h-102.4v-102.4zM921.6 960c1.112 0.045 2.417 0.070 3.728 0.070 54.534 0 98.743-44.209 98.743-98.743 0-1.311-0.026-2.616-0.076-3.914l0.006 0.187v-614.4c0-56.554-45.846-102.4-102.4-102.4h-716.8l-204.8-204.8v921.6c-0.045 1.112-0.070 2.417-0.070 3.728 0 54.534 44.209 98.743 98.743 98.743 1.311 0 2.616-0.026 3.914-0.076l-0.187 0.006z" />
<glyph unicode="&#xe945;" glyph-name="star" d="M512 960l138.971-391.314h373.029l-303.543-230.4 109.714-402.286-318.171 241.371-318.171-241.371 109.714 402.286-303.543 230.4h373.029z" />
<glyph unicode="&#xe946;" glyph-name="stats" d="M128 64h896v-128h-1024v1024h128zM288.914 126.171c-45.803 9.176-79.828 49.072-79.828 96.914s34.025 87.738 79.197 96.809l0.631 0.106h7.314l102.4 171.886c-8.251 14.791-13.54 32.269-14.614 50.877l-0.015 0.323c-1.163 5.687-1.829 12.223-1.829 18.915 0 54.534 44.209 98.743 98.743 98.743s98.743-44.209 98.743-98.743c0-6.692-0.666-13.228-1.934-19.546l0.106 0.631c-0.563-19.426-7.354-37.163-18.433-51.397l0.148 0.197 102.4-171.886h14.629l171.886 296.229c-9.201 15.060-14.65 33.283-14.65 52.779 0 0.731 0.008 1.46 0.023 2.187l-0.002-0.109c-0.045 1.091-0.070 2.371-0.070 3.657 0 52.514 42.571 95.086 95.086 95.086 0.025 0 0.049 0 0.074 0h-0.004c45.803-9.176 79.828-49.072 79.828-96.914s-34.025-87.738-79.197-96.809l-0.631-0.106h-7.314l-171.886-296.229c10.454-15.472 17.119-34.282 18.273-54.567l0.013-0.29c0-0.020 0-0.044 0-0.068 0-53.248-42.148-96.652-94.902-98.67l-0.184-0.006c-0.021 0-0.046 0-0.070 0-52.514 0-95.086 42.571-95.086 95.086 0 1.286 0.026 2.566 0.076 3.84l-0.006-0.183c-0.051 1.098-0.081 2.386-0.081 3.68 0 17.755 5.501 34.226 14.892 47.8l-0.183-0.28-102.4 171.886h-18.286l-102.4-171.886c8.251-14.791 13.54-32.269 14.614-50.877l0.015-0.323c0-0.020 0-0.044 0-0.068 0-53.248-42.148-96.652-94.902-98.67l-0.184-0.006z" />
<glyph unicode="&#xe947;" glyph-name="tag" d="M928.914 960h-288.914c-64.136-2.125-121.793-28.219-164.646-69.557l0.075 0.072-446.171-446.171c-18.42-16.787-29.933-40.877-29.933-67.657s11.513-50.87 29.86-67.592l0.073-0.065 343.771-343.771c16.787-18.42 40.877-29.933 67.657-29.933s50.87 11.513 67.592 29.86l0.065 0.073 446.171 446.171c41.267 42.778 67.361 100.436 69.475 164.166l0.011 0.406v288.914c0 52.514-42.571 95.086-95.086 95.086v0zM800.914 638.171c-0.021 0-0.046 0-0.070 0-52.514 0-95.086 42.571-95.086 95.086 0 1.286 0.026 2.566 0.076 3.84l-0.006-0.183c0 52.514 42.571 95.086 95.086 95.086v0c45.803-9.176 79.828-49.072 79.828-96.914s-34.025-87.738-79.197-96.809l-0.631-0.106z" />
<glyph unicode="&#xe948;" glyph-name="tick" d="M23.040 409.6c-6.795 7.089-11.109 16.604-11.518 27.122l-0.002 0.078c0.463 10.485 4.768 19.882 11.532 26.892l-0.012-0.012 53.76 53.44c6.774 7.103 16.311 11.52 26.88 11.52s20.106-4.417 26.866-11.505l0.014-0.015 3.84-5.12 211.52-224c3.387-3.552 8.156-5.76 13.44-5.76s10.053 2.208 13.433 5.753l0.007 0.007 514.88 532.8h3.84c6.813 7.021 16.338 11.378 26.88 11.378s20.067-4.357 26.871-11.369l0.009-0.009 54.080-52.8c7.103-6.774 11.52-16.311 11.52-26.88s-4.417-20.106-11.505-26.866l-0.015-0.014-615.36-639.040c-6.813-7.021-16.338-11.378-26.88-11.378s-20.067 4.357-26.871 11.369l-0.009 0.009-298.24 322.88z" />
<glyph unicode="&#xe949;" glyph-name="share1" horiz-adv-x="956" d="M525.668 796.626v-457.888c0-26.342-21.235-47.711-47.8-47.711-26.387 0-47.8 21.369-47.8 47.711v458.060l-53.937-53.982c-18.502-18.502-48.517-18.457-67.288 0.314-18.681 18.681-18.547 49.009-0.314 67.288l135.786 135.74c9.184 9.229 21.235 13.842 33.33 13.842l0.358-0.134c12.14-0.045 24.191-4.614 33.285-13.708l135.74-135.74c18.502-18.502 18.502-48.517-0.269-67.288-18.681-18.681-49.054-18.547-67.288-0.314l-53.804 53.81zM95.602 75.996h764.531v334.694c0 26.297 21.235 47.576 47.8 47.576 26.387 0 47.8-21.459 47.8-47.576v-382.713c0-13.126-5.331-24.998-13.932-33.599-8.736-8.646-20.652-13.978-33.823-13.978h-860.223c-13.17 0-25.042 5.286-33.689 13.887-8.691 8.78-14.067 20.652-14.067 33.688v382.713c0 26.297 21.235 47.577 47.8 47.577 26.387 0 47.8-21.46 47.8-47.577l0.001-334.693z" />
<glyph unicode="&#xe94a;" glyph-name="timer" d="M720.457 448c141.989 95.82 234.122 256.113 234.122 437.924 0 2.9-0.023 5.794-0.070 8.683l0.006-0.435c0 21.943-3.657 43.886-3.657 65.829h-892.343c0-21.943-3.657-43.886-3.657-65.829-0.041-2.453-0.065-5.348-0.065-8.247 0-181.811 92.133-342.104 232.257-436.737l1.865-1.187c-142.062-96.607-234.15-257.496-234.15-439.894 0-3.493 0.034-6.978 0.101-10.455l-0.008 0.52c0-18.286 3.657-40.229 3.657-62.171h892.343v62.171c0.201 5.394 0.315 11.729 0.315 18.090 0 179.22-90.786 337.237-228.879 430.568l-1.836 1.17zM153.6-1.829c0 190.171 80.457 347.429 223.086 398.629v102.4c-142.629 51.2-223.086 208.457-223.086 394.971h702.171c0-186.514-80.457-343.771-223.086-394.971v-102.4c142.629-51.2 223.086-208.457 223.086-398.629zM610.743 290.743c-43.753 20.974-73.429 64.913-73.429 115.784 0 3.011 0.104 5.998 0.309 8.958l-0.022-0.399v65.829c-0.097 1.889-0.152 4.102-0.152 6.328 0 51.453 29.516 96.012 72.539 117.67l0.756 0.345c40.824 24.649 74.094 57.918 98.027 97.469l0.716 1.274h-409.6c24.649-40.824 57.918-74.094 97.469-98.027l1.274-0.716c43.753-20.974 73.429-64.913 73.429-115.784 0-3.011-0.104-5.998-0.309-8.958l0.022 0.399v-65.829c0.097-1.889 0.152-4.102 0.152-6.328 0-51.453-29.516-96.012-72.539-117.67l-0.756-0.345c-77.621-50.351-131.888-131.076-146.063-224.946l-0.223-1.797h504.686c-14.398 95.667-68.664 176.392-145.021 225.973l-1.264 0.77z" />
<glyph unicode="&#xe94b;" glyph-name="login" d="M512 960c-282.334 0-512-229.666-512-512s229.666-512 512-512c282.334 0 512 229.666 512 512s-229.666 512-512 512zM512 755.2c94.133 0 170.666-76.534 170.666-170.667s-76.534-170.667-170.666-170.667c-94.133 0-170.666 76.534-170.666 170.667s76.534 170.667 170.666 170.667zM512 38.4c-117.866 0-223.932 50.333-298.735 130.266 27.401 101.733 120.201 176.93 230.469 176.93h136.533c110.266 0 203.059-75.199 230.469-176.93-74.8-79.933-180.873-130.266-298.735-130.266z" />
<glyph unicode="&#xe94c;" glyph-name="woo-basket" horiz-adv-x="1205" d="M1076.239 730.099h-44.089l-218.947 217.13c-17.338 17.075-45.295 17.019-62.574-0.114-17.223-17.132-17.223-44.907 0.114-61.982l156.664-155.046h-595.542l156.664 155.046c16.189 17.246 15.73 44.053-1.033 60.73-16.82 16.619-43.86 17.075-61.254 1.025l-218.947-217.073h-58.785c-64.010-0.057-118.203-46.728-127.215-109.507-9.013-62.836 29.91-122.599 91.335-140.356l63.953-385.554c15.271-91.351 94.952-158.339 188.349-158.398h514.374c93.689-0.17 173.652 67.049 188.878 158.689l63.953 385.554c61.369 17.759 100.291 77.577 91.278 140.356s-63.206 109.45-127.157 109.507l-0.016-0.007zM961.194 108.967c-8.152-49.346-51.151-85.546-101.555-85.546h-514.374c-50.404 0-93.403 36.142-101.555 85.375l-61.024 366.32h839.193l-60.686-366.15zM1076.239 562.536h-947.918c-22.331 0-40.415 17.929-40.415 40.069s18.084 40.069 40.415 40.069h947.918c22.331 0 40.415-17.929 40.415-40.069s-18.084-40.069-40.415-40.069z" />
<glyph unicode="&#xe94d;" glyph-name="user" d="M800.914 210.286c-131.657 47.543-175.543 87.771-175.543 179.2s40.229 32.914 58.514 131.657c7.314 40.229 43.886 0 51.2 91.429 0.177 1.6 0.278 3.454 0.278 5.333 0 17.447-8.726 32.855-22.052 42.099l-0.169 0.111s10.971 54.857 14.629 95.086-29.257 186.514-215.771 186.514-223.086-135.314-215.771-186.514 14.629-95.086 14.629-95.086c-13.495-9.355-22.221-24.763-22.221-42.21 0-1.878 0.101-3.733 0.298-5.559l-0.020 0.226c7.314-91.429 43.886-51.2 51.2-91.429 18.286-98.743 58.514-80.457 58.514-131.657s-43.886-131.657-175.543-179.2-223.086-98.743-223.086-135.314v-113.371h1024v113.371c0 36.571-87.771 84.114-223.086 135.314z" />
<glyph unicode="&#xe94e;" glyph-name="user-add" d="M632.686 217.6c-128 43.886-168.229 84.114-168.229 168.229s40.229 32.914 58.514 124.343c7.314 36.571 40.229 0 47.543 87.771s-18.286 40.229-18.286 40.229 7.314 51.2 10.971 91.429-29.257 175.543-204.8 175.543-208.457-128-204.8-175.543 10.971-91.429 10.971-91.429-18.286-7.314-18.286-40.229 40.229-51.2 47.543-87.771c18.286-91.429 58.514-76.8 58.514-124.343s-40.229-124.343-168.229-168.229l-84.114-29.257v-204.8h819.2v106.057c0 32.914-58.514 80.457-186.514 128zM870.4 495.543v153.6h-102.4v-153.6h-153.6v-102.4h153.6v-153.6h102.4v153.6h153.6v102.4z" />
<glyph unicode="&#xe94f;" glyph-name="warning" d="M1009.371 122.514l-384 768c-21.861 41.083-64.405 68.578-113.371 68.578s-91.51-27.495-113.036-67.888l-0.336-0.69-384-768c-9.376-17.062-14.892-37.39-14.892-59.006 0-24.187 6.906-46.762 18.854-65.859l-0.304 0.522c22.762-37.484 63.355-62.149 109.711-62.171h768.003c46.359 0.023 86.952 24.687 109.394 61.604l0.32 0.567c11.643 18.575 18.549 41.15 18.549 65.337 0 21.616-5.516 41.944-15.217 59.653l0.325-0.647zM574.171 96.914c0.146-1.098 0.23-2.369 0.23-3.658 0-16.158-13.099-29.257-29.257-29.257-0.081 0-0.161 0-0.242 0.001h-65.817c-18.178 0-32.914 14.736-32.914 32.914v0 62.171c0 18.178 14.736 32.914 32.914 32.914h65.829c0.068 0.001 0.149 0.001 0.23 0.001 16.158 0 29.257-13.099 29.257-29.257 0-1.29-0.083-2.56-0.245-3.805l0.016 0.147zM574.171 352.914c0.146-1.098 0.23-2.369 0.23-3.658 0-16.158-13.099-29.257-29.257-29.257-0.081 0-0.161 0-0.242 0.001h-65.817c-18.178 0-32.914 14.736-32.914 32.914v0 318.171c0 18.178 14.736 32.914 32.914 32.914v0h65.829c0.068 0.001 0.149 0.001 0.23 0.001 16.158 0 29.257-13.099 29.257-29.257 0-1.29-0.083-2.56-0.245-3.805l0.016 0.147z" />
<glyph unicode="&#xe950;" glyph-name="wrench" d="M1002.057 140.8l-460.8 394.971c20.738 38.559 32.923 84.376 32.923 133.039 0 0.8-0.003 1.599-0.010 2.398l0.001-0.122c0.015 1.087 0.023 2.371 0.023 3.657 0 157.543-127.714 285.257-285.257 285.257-0.008 0-0.016 0-0.025 0h0.001c-0.662 0.005-1.444 0.008-2.227 0.008-29.135 0-57.334-4.008-84.075-11.503l2.188 0.524 164.571-168.229c11.423-11.824 18.462-27.947 18.462-45.714s-7.039-33.89-18.48-45.733l0.018 0.019-98.743-98.743c-11.824-11.423-27.947-18.462-45.714-18.462s-33.89 7.039-45.733 18.48l0.019-0.018-168.229 164.571c-6.971-24.553-10.979-52.752-10.979-81.887 0-0.783 0.003-1.565 0.009-2.347l-0.001 0.12c0-159.563 129.351-288.914 288.914-288.914v0c49.835 0.973 96.326 14.415 136.75 37.32l-1.435-0.748 394.971-460.8c10.125-13.153 25.875-21.546 43.585-21.546 16.034 0 30.461 6.879 40.492 17.847l0.038 0.042 102.4 102.4c11.010 10.068 17.888 24.495 17.888 40.529 0 17.71-8.392 33.46-21.417 43.49l-0.129 0.095z" />
<glyph unicode="&#xe951;" glyph-name="facebook" d="M273.92 416h112.32v-463.36c0-9.19 7.45-16.64 16.64-16.64v0h190.4c9.19 0 16.64 7.45 16.64 16.64v0 459.84h128c8.426 0.109 15.334 6.464 16.312 14.641l0.008 0.079 19.52 170.24c0.071 0.577 0.111 1.244 0.111 1.921 0 9.117-7.331 16.521-16.42 16.639h-149.451v106.24c0 32 17.28 48.32 51.52 48.32h96c9.19 0 16.64 7.45 16.64 16.64v0 156.16c0.001 0.059 0.001 0.128 0.001 0.198 0 8.287-6.057 15.159-13.986 16.43l-0.095 0.013h-140.16c-64.461-0.43-123.192-24.618-167.95-64.235l0.27 0.235c-36.978-32.43-60.196-79.771-60.196-132.535 0-8.445 0.595-16.751 1.745-24.879l-0.108 0.934v-124.8h-117.76c-9.19 0-16.64-7.45-16.64-16.64v0-168c1.283-8.024 8.155-14.081 16.442-14.081 0.070 0 0.139 0 0.208 0.001h-0.011z" />
<glyph unicode="&#xe952;" glyph-name="flickr" d="M453.486 440.686c0-125.227-101.516-226.743-226.743-226.743s-226.743 101.516-226.743 226.743c0 125.227 101.516 226.743 226.743 226.743v0c125.227 0 226.743-101.516 226.743-226.743v0zM1024 440.686c0-125.227-101.516-226.743-226.743-226.743s-226.743 101.516-226.743 226.743c0 125.227 101.516 226.743 226.743 226.743v0c125.227 0 226.743-101.516 226.743-226.743v0z" />
<glyph unicode="&#xe953;" glyph-name="google-plus" d="M782.629 268.8h43.886c12.119 0 21.943 9.824 21.943 21.943v0 153.6h153.6c12.119 0 21.943 9.824 21.943 21.943v0 43.886c0 12.119-9.824 21.943-21.943 21.943v0h-153.6v153.6c0 12.119-9.824 21.943-21.943 21.943v0h-43.886c-12.119 0-21.943-9.824-21.943-21.943v0-153.6h-153.6c-12.119 0-21.943-9.824-21.943-21.943v0-43.886c0-12.119 9.824-21.943 21.943-21.943v0h153.6v-153.6c0-12.119 9.824-21.943 21.943-21.943v0zM175.543-1.829c37.006-8.443 79.804-13.726 123.68-14.618l0.663-0.011c39.341 0.852 77.042 6.137 113.159 15.376l-3.445-0.747c109.714 32.914 179.2 113.371 179.2 204.8s-29.257 138.971-106.057 193.829-62.171 54.857-62.171 65.829 3.657 29.257 43.886 62.171c49.97 35.334 82.595 92.332 84.11 157.024l0.004 0.233c0.146 2.87 0.23 6.232 0.23 9.613 0 47.74-16.632 91.596-44.417 126.089l0.302-0.387h36.571l58.514 43.886c5.383 4.044 8.828 10.416 8.828 17.592 0 2.882-0.556 5.634-1.566 8.156l0.052-0.148c0 7.314-10.971 14.629-18.286 14.629h-270.629c-32.99-1.119-64.305-6.387-94.044-15.302l2.615 0.673c-98.743-36.571-168.229-120.686-168.229-208.457 0-0.037 0-0.080 0-0.124 0-119.167 96.604-215.771 215.771-215.771 2.572 0 5.134 0.045 7.684 0.134l-0.37-0.010c-2.362-7.731-3.722-16.617-3.722-25.82 0-1.209 0.023-2.412 0.070-3.609l-0.005 0.172c0.298-18.951 5.7-36.581 14.884-51.652l-0.256 0.452h-3.657c-120.686 0-230.4-58.514-274.286-146.286-9.242-20.176-14.631-43.768-14.631-68.619 0-0.305 0.001-0.609 0.002-0.913v0.047c1.028-24.29 7.68-46.816 18.676-66.594l-0.39 0.765c25.6-47.543 80.457-80.457 157.257-102.4zM197.486 685.714c-1.342 7.627-2.109 16.408-2.109 25.368 0 32.948 10.374 63.472 28.033 88.486l-0.324-0.483c14.024 14.561 33.202 24.071 54.589 25.585l0.268 0.015h3.657c58.514-3.657 117.029-69.486 128-149.943 1.929-8.681 3.034-18.652 3.034-28.88 0-31.931-10.769-61.347-28.874-84.814l0.24 0.323c-12.154-15.668-30.985-25.656-52.149-25.656-0.952 0-1.9 0.020-2.842 0.060l0.135-0.005h-3.657c-58.514 0-117.029 69.486-128 149.943zM314.514 312.686h3.657c2.464 0.126 5.35 0.198 8.253 0.198 17.934 0 35.226-2.746 51.479-7.842l-1.218 0.329 18.286-10.971c40.229-29.257 69.486-51.2 76.8-80.457 2.388-5.479 3.777-11.863 3.777-18.571 0-1.187-0.043-2.363-0.129-3.528l0.009 0.156q0-120.686-175.543-120.686c-91.429 0-160.914 54.857-160.914 124.343s84.114 117.029 175.543 117.029z" />
<glyph unicode="&#xe954;" glyph-name="instagram" d="M516.16 827.52c123.52 0 138.24 0 186.88-2.56 31.009-0.381 60.541-6.216 87.839-16.587l-1.759 0.587c20.828-7.826 38.57-19.601 53.088-34.527l0.032-0.033c14.994-14.635 26.776-32.488 34.236-52.45l0.324-0.99c9.784-25.54 15.619-55.072 15.998-85.918l0.002-0.162c2.24-48.64 2.56-64 2.56-186.88s0-138.24-2.56-186.88c-0.381-31.009-6.216-60.541-16.587-87.839l0.587 1.759c-15.917-40.39-47.29-71.763-86.642-87.318l-1.038-0.362c-25.54-9.784-55.072-15.619-85.918-15.998l-0.162-0.002c-48.64-2.24-64-2.56-186.88-2.56s-138.24 0-186.88 2.56c-31.009 0.381-60.541 6.216-87.839 16.587l1.759-0.587c-20.828 7.826-38.57 19.601-53.088 34.527l-0.032 0.033c-14.959 14.55-26.734 32.292-34.233 52.133l-0.327 0.987c-9.784 25.54-15.619 55.072-15.998 85.918l-0.002 0.162c-2.24 48.64-2.56 64-2.56 186.88s0 138.24 2.56 186.88c0.381 31.009 6.216 60.541 16.587 87.839l-0.587-1.759c7.733 20.81 19.402 38.551 34.218 53.099l0.022 0.021c14.635 14.994 32.488 26.776 52.45 34.236l0.99 0.324c25.54 9.784 55.072 15.619 85.918 15.998l0.162 0.002c48.64 2.24 64 2.56 186.88 2.56zM516.16 910.72c-125.76 0-141.44 0-192-2.88-40.549-0.811-79.038-8.605-114.648-22.222l2.328 0.782c-31.741-12.696-58.737-31.166-80.88-54.316l-0.080-0.084c-22.868-22.277-41.022-49.27-52.906-79.422l-0.534-1.538c-12.692-32.883-20.472-70.91-21.432-110.628l-0.008-0.412c-2.24-49.28-2.88-64-2.88-192s0-141.44 2.88-192c0.811-40.549 8.605-79.038 22.222-114.648l-0.782 2.328c12.575-31.193 30.702-57.743 53.372-79.615l0.068-0.065c22.477-23.334 49.806-41.824 80.381-53.866l1.539-0.534c33.282-12.835 71.771-20.629 111.975-21.435l0.345-0.005c49.28-2.24 64-2.88 192-2.88s141.44 0 192 2.88c40.549 0.811 79.038 8.605 114.648 22.222l-2.328-0.782c62.364 24.556 110.804 72.996 134.802 133.758l0.558 1.602c11.996 33.049 19.015 71.196 19.2 110.957v0.083c2.24 49.28 2.88 64 2.88 192s0 141.44-2.88 192c-0.811 40.549-8.605 79.038-22.222 114.648l0.782-2.328c-12.575 31.193-30.702 57.743-53.372 79.615l-0.068 0.065c-22.477 23.334-49.806 41.824-80.381 53.866l-1.539 0.534c-33.282 12.835-71.771 20.629-111.975 21.435l-0.345 0.005c-49.28 2.24-64 2.88-192 2.88zM516.16 685.76c-0.095 0-0.208 0-0.32 0-131.311 0-237.76-106.449-237.76-237.76s106.449-237.76 237.76-237.76c131.311 0 237.76 106.449 237.76 237.76v0c0 0 0 0 0 0 0 131.199-106.266 237.577-237.422 237.76h-0.018zM516.16 293.76c-85.184 0-154.24 69.056-154.24 154.24s69.056 154.24 154.24 154.24c85.184 0 154.24-69.056 154.24-154.24v0c0-85.184-69.056-154.24-154.24-154.24v0zM818.56 695.040c0-30.751-24.929-55.68-55.68-55.68s-55.68 24.929-55.68 55.68c0 30.751 24.929 55.68 55.68 55.68s55.68-24.929 55.68-55.68z" />
<glyph unicode="&#xe955;" glyph-name="linkedin" d="M263.36 804.8c0.001-0.192 0.002-0.418 0.002-0.645 0-54.433-44.127-98.56-98.56-98.56-2.817 0-5.606 0.118-8.362 0.35l0.36-0.024c-2.026-0.152-4.388-0.239-6.771-0.239-53.019 0-96 42.981-96 96 0 1.097 0.018 2.189 0.055 3.277l-0.004-0.158c-0.003 0.288-0.005 0.627-0.005 0.968 0 54.080 43.84 97.92 97.92 97.92 2.818 0 5.607-0.119 8.365-0.352l-0.36 0.025c1.724 0.109 3.738 0.171 5.767 0.171 53.903 0 97.6-43.697 97.6-97.6 0-0.398-0.002-0.794-0.007-1.191l0.001 0.060zM59.2-7.36v635.2h196.8v-635.2zM375.040 425.28c0 79.36-2.56 145.6-5.12 202.56h171.52l9.28-88.32h3.84c41.405 62.29 111.286 102.787 190.627 102.787 1.946 0 3.885-0.024 5.819-0.073l-0.286 0.006c129.92 0 227.52-87.040 227.52-274.24v-375.36h-197.76v352c0 81.92-28.48 137.6-100.16 137.6-46.986-0.622-86.712-31.020-101.212-73.157l-0.228-0.763c-4.159-12.738-6.557-27.396-6.557-42.614 0-2.344 0.057-4.676 0.169-6.992l-0.013 0.327v-366.4h-197.44z" />
<glyph unicode="&#xe956;" glyph-name="pinterest" d="M277.943-56.686c-0.143-0.549-0.225-1.179-0.225-1.829 0-4.164 3.376-7.539 7.539-7.539 3.515 0 6.467 2.405 7.303 5.659l0.011 0.052c45.185 53.797 81.281 117.020 104.836 186.052l1.221 4.119 40.229 164.571c30.718-44.509 81.441-73.305 138.89-73.305 2.601 0 5.189 0.059 7.761 0.176l-0.365-0.013c186.514 0 314.514 171.886 314.514 402.286 0 175.543-146.286 336.457-369.371 336.457-281.6 0-420.571-201.143-420.571-365.714 0-102.4 36.571-193.829 120.686-226.743 2.395-0.977 5.175-1.544 8.086-1.544 10.066 0 18.549 6.778 21.134 16.019l0.037 0.154c2.126 17.715 5.98 33.794 11.458 49.1l-0.486-1.557c1.428 3.329 2.258 7.202 2.258 11.27 0 8.566-3.682 16.273-9.549 21.624l-0.023 0.021c-25.113 29.216-40.403 67.507-40.403 109.369 0 2.694 0.063 5.373 0.189 8.036l-0.014-0.376c-0.017 1.152-0.027 2.512-0.027 3.875 0 153.504 124.439 277.943 277.943 277.943 3.868 0 7.717-0.079 11.547-0.236l-0.549 0.018c157.257 0 245.029-98.743 245.029-226.743s-73.143-314.514-186.514-314.514c-0.799-0.025-1.739-0.039-2.682-0.039-50.495 0-91.429 40.934-91.429 91.429 0 7.805 0.978 15.382 2.818 22.615l-0.136-0.633c18.286 76.8 51.2 157.257 51.2 208.457s-25.6 91.429-80.457 91.429-113.371-65.829-113.371-153.6c-0.012-0.871-0.019-1.9-0.019-2.93 0-31.996 6.736-62.418 18.867-89.927l-0.562 1.428-73.143-321.829c-7.484-36.624-11.768-78.718-11.768-121.812 0-35.76 2.95-70.83 8.619-104.982l-0.508 3.708z" />
<glyph unicode="&#xe957;" glyph-name="tumblr" d="M336.457 74.971c13.18-27.743 31.73-50.975 54.473-69.189l0.384-0.297c25.507-22.582 56.046-40.126 89.667-50.721l1.762-0.479c32.235-11.59 69.43-18.289 108.19-18.289 0.536 0 1.072 0.001 1.607 0.004h-0.083c1.438-0.014 3.138-0.022 4.839-0.022 38.42 0 75.905 4.003 112.061 11.615l-3.529-0.622 120.686 43.886v160.914c-43.096-29.433-96.24-47.145-153.499-47.542l-0.101-0.001c-2.221-0.115-4.822-0.18-7.438-0.18-26.754 0-51.911 6.84-73.816 18.867l0.797-0.401c-15.993 10.89-28.525 25.772-36.312 43.235l-0.259 0.651c-5.414 23.938-8.516 51.43-8.516 79.646 0 10.583 0.436 21.065 1.292 31.427l-0.090-1.358v263.314h237.714v182.857h-237.714v237.714h-146.286c-4.404-48.493-16.090-93.146-34.001-134.473l1.087 2.816c-18.607-34.076-41.788-63.088-69.166-87.492l-0.32-0.28c-33.505-23.569-72.46-42.347-114.323-54.202l-2.706-0.655v-146.286h138.971v-358.4c-0.308-4.864-0.483-10.547-0.483-16.272 0-32.161 5.535-63.029 15.705-91.704l-0.593 1.918z" />
<glyph unicode="&#xe958;" glyph-name="twitter" d="M992 744.32c-32.863-14.732-71.020-25.928-110.929-31.72l-2.351-0.28c40.36 24.14 70.64 61.583 85.060 106.161l0.38 1.359c-36.158-21.074-78.101-37.553-122.6-47.166l-2.84-0.514c-34.162 39.3-84.233 64.003-140.073 64.003-0.368 0-0.736-0.001-1.103-0.003h0.057c-107.117-0.905-193.602-87.949-193.602-195.193 0-0.34 0.001-0.679 0.003-1.019v0.052c-0.001-0.243-0.002-0.53-0.002-0.818 0-15.327 2.222-30.135 6.361-44.12l-0.279 1.098c-164.054 7.032-308.693 84.556-405.294 202.847l-0.786 0.993c-16.092-28.608-25.579-62.794-25.6-99.194v-0.006c0-0.135-0.001-0.294-0.001-0.453 0-67.72 34.541-127.372 86.967-162.299l0.714-0.447c-32.988 1.994-63.529 10.639-90.903 24.604l1.303-0.604v-1.92c0.247-94.374 66.991-173.089 155.839-191.775l1.281-0.225c-15.319-3.864-32.905-6.082-51.009-6.082-0.292 0-0.584 0.001-0.876 0.002h0.045c-13.577 0.327-26.595 1.71-39.268 4.074l1.508-0.234c25.695-78.389 97.699-134.215 182.905-135.359l0.135-0.001c-66.369-51.869-150.933-83.26-242.821-83.52h-0.059c-2.613-0.073-5.688-0.114-8.773-0.114-13.031 0-25.888 0.739-38.534 2.177l1.548-0.143c84.524-54.984 187.937-87.682 298.987-87.682 0.525 0 1.050 0.001 1.574 0.002h-0.081c360.32-0.96 557.12 297.6 557.12 556.48v25.6c37.856 28.088 69.726 61.69 95.089 99.977l0.911 1.463z" />
<glyph unicode="&#xe959;" glyph-name="arrow-set1-right" d="M319.888 742.846l90.95-90.885-134.115-139.368h692.983v-129.168h-692.905l133.936-139.037-90.726-91.339-283.72 294.959c94.532 98.279 189.065 196.558 283.597 294.838z" />
<glyph unicode="&#xe95a;" glyph-name="arrow-set1-down" d="M217.154 255.888l90.885 90.95 139.368-134.115v692.983h129.168v-692.905l139.037 133.936 91.339-90.726-294.959-283.72c-98.279 94.532-196.558 189.065-294.838 283.597z" />
<glyph unicode="&#xe95b;" glyph-name="arrow-set1-left" d="M704.112 153.154l-90.95 90.885 134.115 139.368h-692.983v129.168h692.905l-133.936 139.037 90.726 91.339 283.72-294.959c-94.532-98.279-189.065-196.558-283.597-294.838z" />
<glyph unicode="&#xe95c;" glyph-name="arrow-set1-up" d="M806.846 640.112l-90.885-90.95-139.368 134.115v-692.983h-129.168v692.905l-139.037-133.936-91.339 90.726 294.959 283.72c98.279-94.532 196.558-189.065 294.838-283.597z" />
<glyph unicode="&#xe95d;" glyph-name="chevron-down" d="M4.8 632l512-512 512 512-146.56 145.28-366.080-366.4-366.4 366.4z" />
<glyph unicode="&#xe95e;" glyph-name="chevron-left" d="M699.2 960l-512-512 512-512 144.96 144.96-366.4 367.040 366.4 367.36z" />
<glyph unicode="&#xe95f;" glyph-name="chevron-right" d="M332.8-61.76l512 512-512 509.76-144.96-144 366.4-366.4-366.4-366.4z" />
<glyph unicode="&#xe960;" glyph-name="chevron-up" d="M1027.2 265.92l-512 512-512-512 144.96-144.96 367.68 366.080 366.4-366.4z" />
<glyph unicode="&#xe961;" glyph-name="blockquote" horiz-adv-x="1680" d="M240.057 797.46c-77.824-73.728-163.84-208.896-192.512-299.008-45.056-143.36-40.96-188.416 20.48-315.392 167.936-360.448 675.84-237.568 675.84 159.744 0 147.456-188.416 344.064-331.776 344.064-86.016 0-98.304 49.152-36.864 167.936 61.44 110.592 24.576 98.304-135.168-57.344zM1219.001 854.804c-253.952-167.936-352.256-524.288-204.8-733.184 233.472-335.872 761.856-69.632 626.688 315.392-45.056 126.976-212.992 249.856-344.064 249.856-77.824 0-77.824 40.96 4.096 155.648 73.728 110.592 69.632 110.592-81.92 12.288z" />
<glyph unicode="&#xe962;" glyph-name="woo-gauge" d="M512 852.21c136.769 0 265.354-52.588 362.066-148.060 96.711-95.439 149.934-222.399 149.934-357.435 0-110.842-36.394-215.919-102.716-302.926l-73.185 72.191c47.614 67.24 73.516 146.953 73.516 230.736 0 108.009-42.598 209.571-119.974 285.961-77.343 76.358-180.192 118.429-289.64 118.429-109.382 0-212.297-42.071-289.64-118.429-77.343-76.391-119.941-177.953-119.941-285.961 0-83.783 25.869-163.494 73.449-230.768l-73.119-72.158c-66.355 86.974-102.75 192.085-102.75 302.926 0 135.035 53.256 261.996 149.967 357.435 96.678 95.472 225.264 148.060 362.033 148.060zM652.821 461.284c0 0-53.123-242.328-74.307-278.569s-68.17-48.648-104.894-27.71c-36.725 20.905-49.296 67.273-28.113 103.515 21.216 36.241 207.315 202.765 207.315 202.765zM204.816 397.463c28.277 0 51.177-22.631 51.177-50.536 0-27.873-22.9-50.536-51.177-50.536s-51.21 22.664-51.21 50.536c0 27.906 22.933 50.536 51.21 50.536zM819.233 397.471c28.244 0 51.177-22.631 51.177-50.536 0-27.873-22.933-50.536-51.177-50.536-28.311 0-51.21 22.664-51.21 50.536 0 27.906 22.9 50.536 51.21 50.536zM258.564 597.019c19.996 19.733 52.431 19.733 72.427 0 19.996-19.7 19.963-51.709 0-71.442-19.996-19.733-52.431-19.733-72.427 0-19.963 19.733-19.963 51.742 0 71.442zM693.054 597.033c19.996 19.733 52.398 19.733 72.393 0 19.963-19.7 19.996-51.709 0-71.442s-52.431-19.733-72.393 0c-19.996 19.733-19.996 51.709 0 71.442zM512.004 700.626c28.244 0 51.21-22.631 51.21-50.536s-22.965-50.504-51.21-50.504c-28.277 0-51.21 22.598-51.21 50.504s22.933 50.536 51.21 50.536z" />
<glyph unicode="&#xe963;" glyph-name="woo-trolley" d="M370.691 163.561c-62.991 0-114.073-50.959-114.073-113.799 0-62.802 51.082-113.763 114.073-113.763s114.073 50.959 114.073 113.763c0 62.838-51.082 113.799-114.073 113.799zM798.381 163.561c-62.991 0-114.073-50.959-114.073-113.799 0-62.802 51.082-113.763 114.073-113.763s114.073 50.959 114.073 113.763c0 62.838-51.082 113.799-114.073 113.799zM852.573 428.914l164.899 328.967c9.555 19.393 8.563 41.685-2.61 59.686-11.245 17.928-30.87 28.669-52.516 28.669h-713.288l-14.994 46.927c-12.274 38.715-50.752 66.835-91.471 66.835h-142.591v-113.763h129.399l178.312-558.948c12.274-38.715 50.752-66.835 91.509-66.835h513.22v113.763h-500.063l-18.118 56.899h397.015c25.468 0 50.2 15.324 61.3 37.798z" />
<glyph unicode="&#xe964;" glyph-name="woo-document" d="M810.651 71.383c0-18.148-14.435-32.996-32.079-32.996h-533.176c-17.643 0-32.079 14.848-32.079 32.996v753.235c0 18.115 14.435 32.996 32.079 32.996h284.28c17.675 0 32.079-14.881 32.079-32.996v-190.024c0-18.148 14.435-32.996 32.079-32.996h184.74c17.643 0 32.079-14.848 32.079-32.996v-497.217zM634.219 936.672c-12.479 12.836-28.261 23.328-35.125 23.328h-428.344c-17.643 0-37.692-2.573-44.525-5.775-6.865-3.168-12.447-34.679-12.447-52.827v-906.797c0-18.148 2.503-38.771 5.613-45.799 3.048-7.061 33.715-12.803 51.357-12.803h682.501c17.611 0 37.66 2.607 44.493 5.741 6.865 3.168 12.479 34.712 12.479 52.86v625.209c0 18.148-10.233 43.489-22.712 56.324l-253.292 260.537z" />
<glyph unicode="&#xe965;" glyph-name="arrow-set4-down" d="M512.036 959.993l304.833-293.21-67.061-67.119-189.978 182.824v-846.474h-95.585v846.426l-189.678-182.717-67.439 66.986 304.907 293.284z" />
<glyph unicode="&#xe966;" glyph-name="arrow-set4-left" d="M0.007 448.036l293.21 304.833 67.119-67.061-182.824-189.978h846.474v-95.585h-846.426l182.717-189.678-66.986-67.439-293.284 304.907z" />
<glyph unicode="&#xe967;" glyph-name="arrow-set4-right" d="M1023.993 447.964l-293.21-304.833-67.119 67.061 182.824 189.978h-846.474v95.585h846.426l-182.717 189.678 66.986 67.439 293.284-304.907z" />
<glyph unicode="&#xe968;" glyph-name="arrow-set4-up" d="M512.036 959.993l304.833-293.21-67.061-67.119-189.978 182.824v-846.474h-95.585v846.426l-189.678-182.717-67.439 66.986 304.907 293.284z" />
<glyph unicode="&#xe969;" glyph-name="woo-home" d="M921.585 447.999v149.326h-153.592l-256.008 248.898-511.985-497.794h102.384v-298.651h307.216v248.898h204.767v-248.898h307.216v298.651h102.416z" />
<glyph unicode="&#xe96a;" glyph-name="woo-user" d="M989.68 86.278c-44.8 61.223-272.321 35.818-307.040 105.767-68.887 138.726-40.768 112.953 4.105 147.305 42.124 32.262 40.144 117.279 65.917 147.452 26.14 30.649 38.202 118.452 28.339 151.52-13.015 43.846-33.033 20.017-36.039 53.086-6.562 71.38 11.475 130.074-28.705 164.791-38.824 33.544-87.401 102.797-166.516 103.798-27.532 0.321-58.805-7.891-94.66-28.459-170.659 18.22-169.558-168.751-176.049-240.13-3.043-33.069-23.061-9.238-36.075-53.086-9.825-33.069 2.236-120.872 28.375-151.52 25.773-30.172 23.757-115.188 65.881-147.452 44.874-34.351 73.030-8.578 4.105-147.341-34.719-69.949-262.202-44.506-307.040-105.731-34.279-46.78-34.279-150.273-34.279-150.273h1023.991c0 0 0 103.495-34.315 150.273z" />
<glyph unicode="&#xe96b;" glyph-name="woo-back" d="M691.201 732.448h-486.395v170.664l-204.807-227.528 204.807-227.565v170.664h486.395c127.068 0 230.412-114.827 230.412-256.015s-103.344-256.015-230.412-256.015h-486.395v-113.764h486.395c183.524 0 332.799 165.899 332.799 369.779 0 203.917-149.275 369.779-332.799 369.779z" />
<glyph unicode="&#xe96c;" glyph-name="woo-alert" horiz-adv-x="995" d="M965.52 230.010l-328.658 584.237c-35.284 62.708-84.776 97.214-139.359 97.214-54.632 0-104.124-34.506-139.404-97.214l-328.614-584.237c-35.111-62.448-38.997-123.218-10.969-171.189 28.029-47.894 82.962-74.282 154.606-74.282h648.759c71.691 0 126.579 26.387 154.606 74.282 28.029 47.937 24.142 108.745-10.969 171.189h0.004zM910.498 97.472c-13.561-23.148-45.821-36.364-88.576-36.364h-648.759c-42.755 0-75.059 13.301-88.576 36.364-13.561 23.192-9.285 57.827 11.618 95.056l328.614 584.237c20.859 37.012 47.332 58.216 72.726 58.216s51.867-21.205 72.64-58.216l328.614-584.237c20.945-37.227 25.177-71.864 11.704-95.056h-0.005zM497.501 258.037c-27.813 0-50.356-22.545-50.356-50.356 0-27.855 22.545-50.442 50.356-50.442 27.855 0 50.4 22.545 50.4 50.442 0 27.769-22.545 50.356-50.4 50.356zM497.501 623.058c-27.813 0-50.356-22.545-50.356-50.356 0-1.511 0.302-2.851 0.388-4.276h-0.259l20.082-244.047h0.173c1.296-15.46 14.165-27.725 29.971-27.725 15.85 0 28.677 12.223 30.015 27.725h0.173l20.082 244.047h-0.259c0.129 1.425 0.388 2.763 0.388 4.276 0 27.769-22.545 50.356-50.4 50.356h0.001z" />
<glyph unicode="&#xe96d;" glyph-name="button-download" d="M896.877 517.173c-6.040 22.947-26.813 37.38-50.319 35.216-22.486-2.112-39.808-19.544-42.109-42.361-0.588-5.75-0.575-11.33-0.549-16.702l-0.013-99.833c-0.039-118.569-0.078-237.124 0.353-355.706 0.013-3.781-0.248-5.75-0.444-6.741-0.941-0.196-3.098-0.495-6.327-0.469-188.424 0.456-376.836 0.391-565.26 0.391l-135.805-0.013v706.431l492.678-0.052c5.961-0.104 12.119-0.196 18.525 0.704 27.127 3.794 44.501 26.128 41.324 53.117-1.843 15.528-11.687 41.579-56.908 41.579l-535.022-0.104c-3.412 0.039-6.837 0.065-10.223-0.183-26.905-1.93-44.227-18.997-46.332-45.659-0.484-6.167-0.458-12.386-0.431-18.592l0.013-4.316c-0.027-256.042-0.039-512.085-0.013-768.127 0.013-42.948 16.812-59.675 59.928-59.675l782.734-0.078c37.416 0 56.385 18.697 56.385 55.555v63.352c0 147.852 0 295.691-0.065 443.556-0.013 7.353-0.693 13.286-2.118 18.71zM1023.675 912.292c-0.144 27.81-19.78 47.315-47.743 47.433-87.695 0.352-176.907 0.378-265.164 0.039-26.617-0.091-46.854-20.079-47.064-46.507-0.105-12.803 4.693-24.785 13.518-33.73 8.903-9.022 21.035-14.042 34.173-14.146 36.579-0.274 73.171-0.196 109.75-0.169l42.161 0.039-425.481-436.724c-23.702-24.342-47.364-48.684-70.844-73.209-13.596-14.225-17.348-31.852-10.55-49.662 6.484-16.95 20.107-27.745 38.357-30.379 2.262-0.339 4.445-0.495 6.563-0.495 19.714 0 32.657 13.299 39.939 20.783 160.762 165.128 321.628 330.138 482.494 495.148l4.419 4.537-0.013-33.664c-0.052-36.911-0.092-73.822 0.196-110.72 0.222-28.553 20.303-49.31 47.73-49.362h0.105c26.957 0 47.351 20.574 47.469 47.889 0.418 88.933 0.418 177.383-0.013 262.9z" />
<glyph unicode="&#xe96e;" glyph-name="visibility" d="M512 768c-213.333 0-395.52-132.693-469.333-320 73.813-187.307 256-320 469.333-320s395.52 132.693 469.333 320c-73.813 187.307-256 320-469.333 320v0zM512 234.667c-117.76 0-213.333 95.573-213.333 213.333s95.573 213.333 213.333 213.333c117.76 0 213.333-95.573 213.333-213.333s-95.573-213.333-213.333-213.333v0zM512 576c-70.827 0-128-57.173-128-128s57.173-128 128-128c70.827 0 128 57.173 128 128s-57.173 128-128 128v0z" />
<glyph unicode="&#xe96f;" glyph-name="visibility-off" d="M512.232 704.118c128.524 0 232.833-104.309 232.833-232.833 0-30.268-6.054-58.674-16.764-85.217l135.975-135.975c70.316 58.674 125.73 134.578 159.724 221.192-80.56 204.428-279.4 349.25-512.232 349.25-65.193 0-127.593-11.642-185.335-32.597l100.584-100.584c26.543 10.71 54.949 16.764 85.217 16.764v0zM46.565 831.245l127.593-127.593c-77.301-60.071-137.837-140.166-174.159-232.368 80.56-204.428 279.4-349.25 512.232-349.25 72.178 0 141.097 13.97 203.962 39.116l19.558-19.558 136.44-135.975 59.14 59.14-825.626 825.626-59.14-59.14zM304.079 573.732l72.178-72.178c-2.328-9.779-3.725-20.024-3.725-30.268 0-77.301 62.399-139.7 139.7-139.7 10.245 0 20.489 1.397 30.268 3.725l72.178-72.178c-31.2-15.367-65.659-24.68-102.447-24.68-128.524 0-232.833 104.309-232.833 232.833 0 36.788 9.313 71.247 24.68 102.447v0zM504.781 610.054l146.685-146.685 0.931 7.451c0 77.301-62.399 139.7-139.7 139.7l-7.916-0.466z" />
<glyph unicode="&#xe970;" glyph-name="woo-pencil" d="M170.667 230.4v-123.733h123.733l435.2 435.2-123.733 123.733zM665.6 725.333l64 64 123.733-123.733-64-64z" />
<glyph unicode="&#xe971;" glyph-name="filter" horiz-adv-x="1365" d="M1331.2 748.373h-880.64c-20.48 0-40.96 20.48-40.96 34.133s20.48 40.96 40.96 40.96h880.64c20.48 0 34.133-20.48 34.133-40.96s-13.653-34.133-34.133-34.133zM170.667 748.373h-136.533c-20.48 0-34.133 20.48-34.133 34.133s13.653 40.96 34.133 40.96h136.533c20.48 0 34.133-20.48 34.133-40.96s-13.653-34.133-34.133-34.133zM1331.2 413.867h-232.107c-20.48 0-34.133 13.653-34.133 34.133s13.653 34.133 34.133 34.133h232.107c20.48 0 34.133-13.653 34.133-34.133s-13.653-34.133-34.133-34.133zM826.027 413.867h-791.893c-20.48 0-34.133 13.653-34.133 34.133s13.653 34.133 34.133 34.133h785.067c20.48 0 34.133-13.653 34.133-34.133s-13.653-34.133-27.307-34.133zM1331.2 72.533h-880.64c-20.48 0-40.96 20.48-40.96 40.96s13.653 34.133 34.133 34.133h880.64c20.48 0 34.133-13.653 34.133-34.133 6.827-20.48-6.827-40.96-27.307-40.96zM170.667 72.533h-136.533c-20.48 0-34.133 20.48-34.133 40.96s13.653 40.96 34.133 40.96h136.533c20.48 0 34.133-13.653 34.133-34.133 6.827-27.307-13.653-47.787-34.133-47.787zM307.2 611.84c-88.747 0-170.667 75.093-170.667 170.667s81.92 177.493 170.667 177.493 170.667-81.92 170.667-177.493-68.267-170.667-170.667-170.667zM307.2 891.733c-54.613 0-102.4-47.787-102.4-109.227s47.787-102.4 102.4-102.4 102.4 47.787 102.4 102.4-40.96 109.227-102.4 109.227zM962.56 277.333c-95.573 0-170.667 81.92-170.667 177.493s75.093 177.493 170.667 177.493 170.667-81.92 170.667-177.493-75.093-177.493-170.667-177.493zM962.56 550.4c-54.613 0-102.4-47.787-102.4-102.4s40.96-102.4 102.4-102.4 102.4 47.787 102.4 102.4-47.787 102.4-102.4 102.4zM307.2-64c-88.747 0-170.667 81.92-170.667 177.493s81.92 170.667 170.667 170.667 170.667-81.92 170.667-177.493c6.827-88.747-68.267-170.667-170.667-170.667zM307.2 215.893c-54.613 0-102.4-47.787-102.4-102.4 0-61.44 47.787-109.227 102.4-109.227s102.4 47.787 102.4 109.227c0 54.613-40.96 102.4-102.4 102.4z" />
<glyph unicode="&#xe972;" glyph-name="left-button-chevron" horiz-adv-x="717" d="M696.32 939.52c-30.72 25.6-87.040 25.6-117.76 0l-558.080-450.56c-25.6-20.48-25.6-56.32 0-76.8l552.96-455.68c30.72-25.6 87.040-25.6 117.76 0s30.72 71.68 0 97.28l-481.28 399.36 486.4 389.12c30.72 25.6 30.72 71.68 0 97.28z" />
<glyph unicode="&#xe973;" glyph-name="right-button-chevron" horiz-adv-x="717" d="M24.576-44.032c32.768-26.624 85.504-26.624 118.272 0l554.496 453.632c26.112 21.504 26.112 55.808 0 76.8l-554.496 453.632c-32.768 26.624-85.504 26.624-118.272 0s-32.768-70.144 0-96.768l483.328-395.776-483.84-395.264c-32.256-26.112-32.256-69.632 0.512-96.256z" />
<glyph unicode="&#xe974;" glyph-name="audio" d="M951.299 410.726h-130.516q-16.29 0-27.013 10.721t-10.721 27.029 10.721 27.013q10.721 10.691 27.013 10.691h130.516q16.306 0 27.013-10.721 10.721-10.721 10.721-27.029 0-16.29-10.721-26.998-10.706-10.706-27.013-10.706zM695.762 151.342q8.934 12.582 24.252 15.513 15.302 2.927 27.884-7.013l107.376-80.572q12.597-9.324 14.714-24.13t-7.208-27.388q-9.308-12.973-24.417-15.705-15.121-2.733-28.093 7.191l-107.002 80.588q-12.582 9.308-14.702 24.115t7.191 27.405zM852.976 816.719l-108.008-80.572q-12.973-9.941-27.779-7.013t-23.723 15.513q-9.324 12.597-7.208 27.405 2.116 14.791 14.714 24.115l107.993 80.588q12.582 9.925 27.388 7.191t24.13-15.705q9.308-12.582 7.191-27.388t-14.702-24.13zM257.888 296.681h-175.954q-20.225 0-33.588 13.38-13.38 13.38-13.38 33.588v206.376q0 20.212 13.38 33.588 13.363 13.38 33.588 13.38h175.954l192.125 192.125q18.125 18.125 41.787 8.32t23.664-34.805v-631.199q0-25.392-23.664-35.197t-41.787 8.32l-192.125 192.125zM440 666.907l-148.85-145.383h-180.728v-149.377h180.728l148.85-145.994v440.756z" />
<glyph unicode="&#xe975;" glyph-name="audio-controls" d="M566.224 610.671v108.447h162.671v216.895h108.447v-216.895h162.671v-108.447h-433.776zM728.895-40v542.224h108.447v-542.224h-108.447zM186.671-40v216.895h-162.671v108.447h433.776v-108.447h-162.671v-216.895h-108.447zM186.671 393.776v542.224h108.447v-542.224h-108.447z" />
</font>
</defs>
</svg>
